Ссылка на приватное зеркало нашего сайта всего за 1$. Внимание количество ограничено!!!

2 сезон

iTunes

1 сезон

1

2 сезон

2 сезон

iTunes

1 сезон

RePack

30

Новинка

ВАЖНО

ИГРА 18+

pack

RePack

MK11
pack

Забери бонус

RePack

jed

!!Акция!!

Alien_Rage

RePack

fifa19

RePack

Assassins Creed: Odyssey

RePack

NEED FOR SPEED™ PAYBACK

4 сезон

9 сезон

Бесстыжие 9 сезон

Все сериалы

все сериалы на PB.wtf

RePack

FAR CRY 5
  

Геракл: Начало легенды / The Legend of Hercules (Ренни Харлин / Renny Harlin) [2014, США, Болгария, боевик, фэнтези, Blu-ray,Дубляж - [Лицензия] pb.wtf

Геракл: Начало легенды через торрент pb.wtf

Размер: 21.72 GB | Добавлен: 6 лет 2 мес. назад | Торрент скачан:53 раза
Скачать  

11-09-2014 21:00 Геракл: Начало легенды Скачать торрент  

Геракл: Начало легенды / The Legend of Hercules

Год выпуска: 2014
Страна: США, Болгария
Жанр: боевик, фэнтези
слова
Продолжительность: 01:38:32
Перевод: Дубляж - [Лицензия]
Субтитры: Нет
Режиссер: Ренни Харлин / Renny Harlin
В ролях: Келлан Латс (Hercules), Скотт Эдкинс (King Amphitryon), Лиам МакИнтайр (Sotiris), Гайя Уайсс (Hebe), Лайам Гэрриган (Iphicles), Роксанна МакКи (Queen Alcmene), Раде Шербеджия (Chiron), Джонатон Шек (Tarak), Люк Ньюберри (Agamemnon), Кеннет Крэнэм (Lucius), Мэрайя Гэйл (Kakia), Сарай Гивати (Saphirra)
Описание:
1200 г. до н. э. Древняя Греция. Прекрасная царица Алкмена попала под чары грозного бога Олимпа - Зевса и родила ему сына Геракла. При рождении ему было предсказано стать величайшим воином, который будет властвовать над народами и принесет мир и процветание своей стране. Но пока Геракл ничего не знает о своем предназначении. Он вырос прекрасным и сильным юношей. Он мечтает о любви принцессы Крита, Гебы, которая обещана в жены его брату. Когда Геракл узнает о своей великой миссии, он должен выбрать: сбежать со своей любовью или исполнить свое предназначение.
Рейтинг

imdb.com: 4.20 (30 722)
MPAA: PG-13 - Детям до 13 лет просмотр не желателен
Качество: Blu-ray
Формат: BDAV
Видео кодек: AVC
Аудио кодек:PCM
Видео: AVC, 1920x1080 (16:9), 25273 kbps, 24 fps, 0,508 bpp
Аудио: PCM / 5.1 / 48 kHz / 4608 kbps / 16 bit

Общее
Полное имя : Y:\Раздачи для PiraToV\Hercules_HDCLUB\BDMV\STREAM\00003.m2ts
Формат : BDAV
Формат/Информация : Blu-ray Video
Размер файла : 21,4 Гбайт
Продолжительность : 1 ч. 38 м.
Режим общего битрейта : Переменный
Общий поток : 31,1 Мбит/сек
Максимальный общий битрейт : 48,0 Мбит/сек

Видео
Идентификатор : 4113 (0x1011)
Идентификатор меню : 1 (0x1)
Формат : AVC
Формат/Информация : Advanced Video Codec
Профиль формата : High@L4.1
Параметр CABAC формата : Да
Параметр ReFrames формата : 4 кадра
Параметр GOP формата : M=3, N=24
Идентификатор кодека : 27
Продолжительность : 1 ч. 38 м.
Вид битрейта : Переменный
Битрейт : 25,3 Мбит/сек
Максимальный битрейт : 33,0 Мбит/сек
Ширина : 1920 пикселей
Высота : 1080 пикселей
Соотношение сторон : 16:9
Частота кадров : 24,000 кадра/сек
Стандарт вещания : NTSC
Цветовое пространство : YUV
Субдискретизация насыщенности : 4:2:0
Битовая глубина : 8 бит
Тип развёртки : Прогрессивная
Бит/(Пиксели*Кадры) : 0.508
Размер потока : 17,4 Гбайт (81%)
Основные цвета : BT.709
Характеристики трансфера : BT.709
Коэффициенты матрицы : BT.709

Аудио
Идентификатор : 4352 (0x1100)
Идентификатор меню : 1 (0x1)
Формат : PCM
Параметр Endianness формата : Big
Параметр Sign формата : Signed
Режим смешивания : Blu-ray
Идентификатор кодека : 128
Продолжительность : 1 ч. 38 м.
Вид битрейта : Постоянный
Битрейт : 4608 Кбит/сек
Каналы : 6 каналов
Расположение каналов : Front: L C R, Side: L R, LFE
Частота : 48,0 КГц
Битовая глубина : 16 бит
Размер потока : 3,17 Гбайт (15%)
pb.wtf



Скачать Геракл: Начало легенды через торрент http://i65.fastpic.ru/big/2014/0912/03/6ef3ffa33e88a886dfe8b583e4239903.jpg Скачать фильм Геракл: Начало легенды через торрент бесплантно в хорошем качестве Описание: 1200 г. до н. э. Древняя Греция. Прекрасная царица Алкмена попала под чары грозного бога Олимпа - Зевса и родила ему сына ... 9.8 10 4
Торрент: Зарегистрирован [2014-09-11 21:00] · скачан: 53 раз
Статус: √ проверено
Размер: 21.72 GB
Как cкачать? Как скачать Геракл: Начало легенды через торрент | qTorrent

% Раздел Тема Автор DL S | L
Ultra HD (UHD: 2K, 4K, 8K) — видео сверхвысокой чёткости [ 56.12 GB ] Геракл: Начало легенды / The Legend of Hercules [2014 UHD BDRemux 2160p] - [] sheker187 Скачать
1 | 0
Фильмы 2014 [DVDrip, WEB-DLRip, HDrip] [ 2.18 GB ] Геракл: Начало легенды / The Legend of Hercules [2014 Болгария HDRip-AVC] - [] От R.G. PiratFilms White Smoke Скачать
1 | 0
Фильмы 2014 [DVDrip, WEB-DLRip, HDrip] [ 2.04 GB ] Геракл: Начало легенды / The Legend of Hercules [2014 BDRip ] coc900 Скачать
1 | 0
Фильмы 2014 [DVDrip, WEB-DLRip, HDrip] [ 2.91 GB ] Геракл: Начало легенды / The Legend of Hercules (2014 BDRip-AVC] [US-Transfer] DUB potroks Скачать
1 | 0
Фильмы [HD 720p, 1080p] (Хороший звук DUB, MVO) [ 9.24 GB ] Геракл: Начало легенды / The Legend of Hercules [2014 BDRip 1080p DUB ] от R.G. HD-Films Seedtank Скачать
1 | 0
Фильмы (DVD фильмы) [ 4.64 GB ] Геракл: Начало легенды / The Legend of Hercules [2014 DVD9] R5 voovaz Скачать
1 | 0
Фильмы 2014 [DVDrip, WEB-DLRip, HDrip] [ 1.46 GB ] Геракл: Начало легенды / The Legend of Hercules [2014 BDRip ] кэп Скачать
1 | 0


Последний раз редактировалось: Gofa (2014-09-12 06:35), всего редактировалось 1 раз

28-11-2019 20:33  

Отключить всю рекламу на сайте

18-10-2014 17:57 Геракл: Начало легенды Скачать торрент  

Вернитесь на раздачу плз!pb.wtf



    Дорогой пользователь! Огромная просьба, поблагодарите релизера, оцените раздачу и оставьте свои комментарий, если Вы скачали Геракл: Начало легенды через торрент бесплатно! Внесите свою лепту в развитие PiratBit!
    Комментировать посты могут только пользователи прошедшие не сложную регистрацию
    Показать сообщения:    

    Геракл: Начало легенды через торрент
    Скачать бесплатно Геракл: Начало легенды
    Геракл: Начало легенды скачать торрент
    Геракл: Начало легенды смотреть онлайн
    Cкачать фильм Геракл: Начало легенды бесплатно
    Геракл: Начало легенды скачать торрент в хорошем качестве
    Геракл: Начало легенды смотреть онлайн бесплатно в хорошем качестве


    Вы не можете начинать темы
    Вы не можете отвечать на сообщения
    Вы не можете редактировать свои сообщения
    Вы не можете удалять свои сообщения
    Вы не можете голосовать в опросах
    Вы не можете прикреплять файлы к сообщениям
    Вы можете скачивать файлы