Ссылка на приватное зеркало нашего сайта всего за 1$. Внимание количество ограничено!!!

2 сезон

iTunes

1 сезон

1

iTunes

iTunes

iTunes

1 сезон

RePack

30

ИГРА 18+

pack

ВАЖНО

!!Акция!!

Alien_RageХит недели

RePack

MK11
pack

Забери бонус

RePack

jed

!!Акция!!

Alien_Rage

RePack

fifa19

RePack

Assassins Creed: Odyssey

RePack

NEED FOR SPEED™ PAYBACK

4 сезон

9 сезон

Бесстыжие 9 сезон

Все сериалы

все сериалы на PB.wtf

RePack

FAR CRY 5
  

Резня на пляже в Джерси / Jersey Shore Massacre (Paul Tarnopol) [2014, ужасы, комедия, HDRip, Любительский (одноголосый) [Xixidok] pb.wtf

Резня на пляже в Джерси через торрент pb.wtf

Размер: 1.45 GB | Добавлен: 6 лет 1 мес. назад | Торрент скачан:332 раза
Скачать  

12-09-2014 00:30 Резня на пляже в Джерси Скачать торрент  


Резня на пляже в Джерси / Jersey Shore Massacre

«The Situation Just Got Deadly»

Год выпуска: 2014
Страна:США
Жанр:ужасы, комедия
Продолжительность: 01:27:46
Перевод:Любительский (одноголосый) [Xixidok]
Режиссер:Paul Tarnopol
В ролях:

Danielle Dallacco (Teresa), Анджелика Боччелла (Dina), Джонни Розелли (Tony), Крис Лаззаро (Freddy), Николь Рутильяно (Joanne), Ashley Mitchell (Valerie), Кристина Скальоне (Gigi), Brenton Duplessie (Vinnie), Бретт Азар (Gino), John Michael Hastie (Joey), Леонарда Бош (Rosemarie), Шон С. Филлипс (Keith)
  • Описание:
    Обычный уик-энд на пляже превращается в кровавую резню, когда шесть девушек и пятеро парней, сами того не подозревая, становятся мишенями психически невменяемого убийцы.


    Качество:HDRip
    Формат:AVI
    Видео кодек: XviD
    Аудио кодек:AC3
    Видео: XviD, 720x304 (2.35:1), 1969 kbps, 23,976 fps, 0,375 bpp
    Аудио №1: AC3 / 2.0 / 44 kHz / 192 kbps / Russian
    Аудио №2: AC3 / 2.0 / 48 kHz / 192 kbps / English

    Код:

    General
    Complete name                            : D:\Торенты\Jersey.Shore.Massacre.2014.L1.HDRip.1.45Gb.avi
    Format                                   : AVI
    Format/Info                              : Audio Video Interleave
    File size                                : 1.45 GiB
    Duration                                 : 1h 27mn
    Overall bit rate                         : 2 367 Kbps
    Writing application                      : VirtualDubMod 1.5.10.3 | www.virtualdub-fr.org || (build 2550/release)
    Writing library                          : VirtualDubMod build 2550/release

    Video
    ID                                       : 0
    Format                                   : MPEG-4 Visual
    Format profile                           : Advanced Simple@L5
    Format settings, BVOP                    : 1
    Format settings, QPel                    : No
    Format settings, GMC                     : No warppoints
    Format settings, Matrix                  : Custom
    Codec ID                                 : XVID
    Codec ID/Hint                            : XviD
    Duration                                 : 1h 27mn
    Bit rate                                 : 1 969 Kbps
    Width                                    : 720 pixels
    Height                                   : 304 pixels
    Display aspect ratio                     : 2.35:1
    Frame rate                               : 23.976 fps
    Color space                              : YUV
    Chroma subsampling                       : 4:2:0
    Bit depth                                : 8 bits
    Scan type                                : Progressive
    Compression mode                         : Lossy
    Bits/(Pixel*Frame)                       : 0.375
    Stream size                              : 1.21 GiB (83%)
    Writing library                          : XviD 73

    Audio #1
    ID                                       : 1
    Format                                   : AC-3
    Format/Info                              : Audio Coding 3
    Mode extension                           : CM (complete main)
    Codec ID                                 : 2000
    Duration                                 : 1h 27mn
    Bit rate mode                            : Constant
    Bit rate                                 : 192 Kbps
    Channel(s)                               : 2 channels
    Channel positions                        : Front: L R
    Sampling rate                            : 44.1 KHz
    Bit depth                                : 16 bits
    Compression mode                         : Lossy
    Delay relative to video                  : 116ms
    Stream size                              : 121 MiB (8%)
    Alignment                                : Split accross interleaves
    Interleave, duration                     : 42 ms (1.00 video frame)
    Interleave, preload duration             : 500 ms

    Audio #2
    ID                                       : 2
    Format                                   : AC-3
    Format/Info                              : Audio Coding 3
    Mode extension                           : CM (complete main)
    Codec ID                                 : 2000
    Duration                                 : 1h 27mn
    Bit rate mode                            : Constant
    Bit rate                                 : 192 Kbps
    Channel(s)                               : 2 channels
    Channel positions                        : Front: L R
    Sampling rate                            : 48.0 KHz
    Bit depth                                : 16 bits
    Compression mode                         : Lossy
    Delay relative to video                  : 19ms
    Stream size                              : 121 MiB (8%)
    Alignment                                : Split accross interleaves
    Interleave, duration                     : 42 ms (1.00 video frame)
    Interleave, preload duration             : 500 ms


    Скриншоты:

    Срочно! Нужна помощь!
    Поблагодарить релизера!
    pb.wtf



  • Скачать Резня на пляже в Джерси через торрент http://pic.kartinco.top/images/6/ordi9.jpg Скачать фильм Резня на пляже в Джерси через торрент бесплантно в хорошем качестве Описание:Обычный уик-энд на пляже превращается в кровавую резню, когда шесть девушек и пятеро парней, сами того не подозревая, становятся ... 8.7 10 16
    Торрент: Зарегистрирован [2014-09-12 00:30] · скачан: 332 раз
    Статус: T временная
    Размер: 1.45 GB
    Как cкачать? Как скачать Резня на пляже в Джерси через торрент | qTorrent

    28-11-2019 20:33  

    Отключить всю рекламу на сайте

    12-09-2014 00:41 Резня на пляже в Джерси Скачать торрент  

    ужастик с элементами сисек или сиськи с элементами ужастика sarcasticpb.wtf



    12-09-2014 00:49 Резня на пляже в Джерси Скачать торрент  

    короче!pb.wtf



    12-09-2014 05:15 Резня на пляже в Джерси Скачать торрент  

    К таким шедеврам побольше скринов надо!!!! Посмотрел и успокоился или возбудился)))) pb.wtf



      Дорогой пользователь! Огромная просьба, поблагодарите релизера, оцените раздачу и оставьте свои комментарий, если Вы скачали Резня на пляже в Джерси через торрент бесплатно! Внесите свою лепту в развитие PiratBit!
      Комментировать посты могут только пользователи прошедшие не сложную регистрацию
      Показать сообщения:    

      Резня на пляже в Джерси через торрент
      Скачать бесплатно Резня на пляже в Джерси
      Резня на пляже в Джерси скачать торрент
      Резня на пляже в Джерси смотреть онлайн
      Cкачать фильм Резня на пляже в Джерси бесплатно
      Резня на пляже в Джерси скачать торрент в хорошем качестве
      Резня на пляже в Джерси смотреть онлайн бесплатно в хорошем качестве


      Вы не можете начинать темы
      Вы не можете отвечать на сообщения
      Вы не можете редактировать свои сообщения
      Вы не можете удалять свои сообщения
      Вы не можете голосовать в опросах
      Вы не можете прикреплять файлы к сообщениям
      Вы можете скачивать файлы