Ссылка на приватное зеркало нашего сайта всего за 1$. Внимание количество ограничено!!!

2 сезон

iTunes

1 сезон

1

iTunes

iTunes

iTunes

1 сезон

RePack

30

ИГРА 18+

pack

ВАЖНО

!!Акция!!

Alien_RageХит недели

RePack

MK11
pack

Забери бонус

RePack

jed

!!Акция!!

Alien_Rage

RePack

fifa19

RePack

Assassins Creed: Odyssey

RePack

NEED FOR SPEED™ PAYBACK

4 сезон

9 сезон

Бесстыжие 9 сезон

Все сериалы

все сериалы на PB.wtf

RePack

FAR CRY 5
  

День, когда Земля остановилась / The Day the Earth Stood Still (Скотт Дерриксон / Scott Derrickson) [2008, США, фантастика, триллер, драма, BDRip 1080p,Дубляж, Авторский (одноголосый) pb.wtf

День, когда Земля остановилась через торрент pb.wtf

Размер: 7.95 GB | Добавлен: 6 лет 1 мес. назад | Торрент скачан:202 раза
Скачать  

12-09-2014 05:06 День, когда Земля остановилась Скачать торрент  

День, когда Земля остановилась / The Day the Earth Stood Still

Год выпуска: 2008
Страна:США
Жанр: фантастика, триллер, драма
Продолжительность: 01:43:35
Перевод: Дубляж / Авторский (одноголосый)
Субтитры: русские (Русские [форсированные]), русские (Русские [полные]), английские (Английские),
Режиссер: Скотт Дерриксон / Scott Derrickson
В ролях:
Киану Ривз (Klaatu), Дженнифер Коннелли (Helen Benson), Кэти Бейтс (Regina Jackson), Джейден Смит (Jacob Benson), Джон Клиз (Professor Barnhardt), Джон Хэмм (Michael Granier), Кайл Чандлер (John Driscoll), Роберт Неппер (Colonel), Джеймс Хонг (Mr. Wu), Джон Ротмен (Dr. Myron), Сунита Прасад (Rouhani), Хуан Ридингер (William Kwan)

Описание:
Об инопланетянине, который прибыл на нашу планету с предупреждением: если не будут прекращены войны и разрушения, Земля будет уничтожена извне, поскольку представляет угрозу для остальной Вселенной!
Рейтинг:


Качество: BDRip 1080p
Формат: MKV
Видео кодек: AVC
Аудио кодек:AC3
Видео: AVC, 1920x816 (2.35:1), 9263 kbps, 23,976 fps, 0,247 bpp
Аудио №1: русский / AC3 / 5.1 / 48 kHz / 640 kbps / 16 bit [Дублированный]
Аудио №2: русский / AC3 / 5.1 / 48 kHz / 448 kbps / 16 bit [Авторский, Ю. Сербин]
Аудио №3: английский / AC3 / 5.1 / 48 kHz / 640 kbps / 16 bit [Английский]
Навигация по главам: есть

Код:

General
Unique ID                                : 176825052214445479621329935094387773283 (0x8507442C171A1D53BCACFF0ACBDF0F63)
Complete name                            : H:\The.Day.the.Earth.Stood.Still.2008.x264.BDRip.1080p.mkv
Format                                   : Matroska
Format version                           : Version 4 / Version 2
File size                                : 7.95 GiB
Duration                                 : 1h 43mn
Overall bit rate                         : 11.0 Mbps
Encoded date                             : UTC 2013-06-30 19:52:17
Writing application                      : mkvmerge v6.2.0 ('Promised Land') built on Apr 28 2013 12:22:01
Writing library                          : libebml v1.3.0 + libmatroska v1.4.0

Video
ID                                       : 1
Format                                   : AVC
Format/Info                              : Advanced Video Codec
Format profile                           : High@L4.1
Format settings, CABAC                   : Yes
Format settings, ReFrames                : 5 frames
Codec ID                                 : V_MPEG4/ISO/AVC
Duration                                 : 1h 43mn
Bit rate                                 : 9 263 Kbps
Width                                    : 1 920 pixels
Height                                   : 816 pixels
Display aspect ratio                     : 2.35:1
Frame rate                               : 23.976 fps
Color space                              : YUV
Chroma subsampling                       : 4:2:0
Bit depth                                : 8 bits
Scan type                                : Progressive
Bits/(Pixel*Frame)                       : 0.247
Stream size                              : 6.54 GiB (82%)
Writing library                          : x264 core 133 r2334 a3ac64b
Encoding settings                        : cabac=1 / ref=5 / deblock=1:-3:-3 / analyse=0x3:0x133 / me=tesa / subme=11 / psy=1 / psy_rd=1.00:0.09 / mixed_ref=1 / me_range=32 / chroma_me=1 / trellis=2 / 8x8dct=1 / cqm=0 / deadzone=21,11 / fast_pskip=0 / chroma_qp_offset=-3 / threads=12 / lookahead_threads=1 / sliced_threads=0 / nr=0 / decimate=0 / interlaced=0 / bluray_compat=0 / constrained_intra=0 / bframes=3 / b_pyramid=2 / b_adapt=2 / b_bias=0 / direct=3 / weightb=1 / open_gop=0 / weightp=2 / keyint=240 / keyint_min=23 / scenecut=40 / intra_refresh=0 / rc_lookahead=60 / rc=2pass / mbtree=1 / bitrate=9263 / ratetol=1.0 / qcomp=0.60 / qpmin=0 / qpmax=69 / qpstep=4 / cplxblur=20.0 / qblur=0.5 / ip_ratio=1.40 / aq=1:1.00
Language                                 : English
Default                                  : Yes
Forced                                   : No

Audio #1
ID                                       : 2
Format                                   : AC-3
Format/Info                              : Audio Coding 3
Mode extension                           : CM (complete main)
Codec ID                                 : A_AC3
Duration                                 : 1h 43mn
Bit rate mode                            : Constant
Bit rate                                 : 640 Kbps
Channel(s)                               : 6 channels
Channel positions                        : Front: L C R, Side: L R, LFE
Sampling rate                            : 48.0 KHz
Bit depth                                : 16 bits
Compression mode                         : Lossy
Stream size                              : 474 MiB (6%)
Title                                    : AC3 5.1ch 640 kbps - Дубляж, Невафильм
Language                                 : Russian
Default                                  : Yes
Forced                                   : No

Audio #2
ID                                       : 3
Format                                   : AC-3
Format/Info                              : Audio Coding 3
Mode extension                           : CM (complete main)
Codec ID                                 : A_AC3
Duration                                 : 1h 43mn
Bit rate mode                            : Constant
Bit rate                                 : 448 Kbps
Channel(s)                               : 6 channels
Channel positions                        : Front: L C R, Side: L R, LFE
Sampling rate                            : 48.0 KHz
Bit depth                                : 16 bits
Compression mode                         : Lossy
Stream size                              : 332 MiB (4%)
Title                                    : AC3 5.1ch 448 kbps - Авторский, Ю. Сербин
Language                                 : Russian
Default                                  : No
Forced                                   : No

Audio #3
ID                                       : 4
Format                                   : AC-3
Format/Info                              : Audio Coding 3
Mode extension                           : CM (complete main)
Codec ID                                 : A_AC3
Duration                                 : 1h 43mn
Bit rate mode                            : Constant
Bit rate                                 : 640 Kbps
Channel(s)                               : 6 channels
Channel positions                        : Front: L C R, Side: L R, LFE
Sampling rate                            : 48.0 KHz
Bit depth                                : 16 bits
Compression mode                         : Lossy
Stream size                              : 474 MiB (6%)
Title                                    : AC3 5.1ch 640 kbps - Английский
Language                                 : English
Default                                  : No
Forced                                   : No

Text #1
ID                                       : 5
Format                                   : UTF-8
Codec ID                                 : S_TEXT/UTF8
Codec ID/Info                            : UTF-8 Plain Text
Title                                    : Русские [форсированные]
Language                                 : Russian
Default                                  : Yes
Forced                                   : No

Text #2
ID                                       : 6
Format                                   : UTF-8
Codec ID                                 : S_TEXT/UTF8
Codec ID/Info                            : UTF-8 Plain Text
Title                                    : Русские [полные]
Language                                 : Russian
Default                                  : No
Forced                                   : No

Text #3
ID                                       : 7
Format                                   : UTF-8
Codec ID                                 : S_TEXT/UTF8
Codec ID/Info                            : UTF-8 Plain Text
Title                                    : Английские
Language                                 : English
Default                                  : No
Forced                                   : No

Menu
00:00:00.000                             : en:Chapter 1
00:05:25.992                             : en:Chapter 2
00:11:53.421                             : en:Chapter 3
00:15:46.946                             : en:Chapter 4
00:21:24.908                             : en:Chapter 5
00:24:10.031                             : en:Chapter 6
00:28:40.301                             : en:Chapter 7
00:31:35.560                             : en:Chapter 8
00:34:20.641                             : en:Chapter 9
00:37:50.643                             : en:Chapter 10
00:41:40.748                             : en:Chapter 11
00:44:27.373                             : en:Chapter 12
00:47:33.308                             : en:Chapter 13
00:49:05.692                             : en:Chapter 14
00:51:20.368                             : en:Chapter 15
00:54:38.483                             : en:Chapter 16
00:59:25.520                             : en:Chapter 17
01:01:04.744                             : en:Chapter 18
01:06:44.000                             : en:Chapter 19
01:10:50.329                             : en:Chapter 20
01:13:06.131                             : en:Chapter 21
01:17:41.365                             : en:Chapter 22
01:21:53.742                             : en:Chapter 23
01:24:12.422                             : en:Chapter 24
01:27:24.530                             : en:Chapter 25
01:29:39.082                             : en:Chapter 26
01:34:45.680                             : en:Chapter 27
01:38:32.907                             : en:Chapter 28

скриншот   скриншот   скриншот   скриншот  
pb.wtf



Скачать День, когда Земля остановилась через торрент http://s009.radikal.ru/i310/1409/5d/5b0d340ef31e.png Скачать фильм День, когда Земля остановилась через торрент бесплантно в хорошем качестве Описание: Об инопланетянине, который прибыл на нашу планету с предупреждением: если не будут прекращены войны и разрушения, Земля будет ... 9.6 10 15
Info! Золотая раздача, скачанное не засчитывается.
Торрент: Зарегистрирован [2014-09-12 05:06] · скачан: 202 раз
Статус: √ проверено
Размер: 7.95 GB
Как cкачать? Как скачать День, когда Земля остановилась через торрент | qTorrent

% Раздел Тема Автор DL S | L
Фильмы [HD 720p, 1080p] (Хороший звук DUB, MVO) [ 5.53 GB ] День когда Земля остановилась / The Day the Earth Stood Still [2008 BDRip 1080p HEVC ()] Мичман37 Скачать
1 | 0
Фильмы (WEB-DL 720p, 1080p) [ 8.61 GB ] День когда Земля остановилась / The Day the Earth Stood Still [Open Matte] [2008 HDTVRip 1080p] DUB+AVO+OriginalSubs Assasinca Скачать
1 | 0
Фильмы 2006-2008 [ 1.45 GB ] День когда Земля остановилась / The Day the Earth Stood Stil [2008 HDRiр-AVC от R.G. AVI / AVC DUB ] ~Relizer~ Скачать
1 | 0
Фильмы 2006-2008 [ 2.05 GB ] День когда Земля остановилась / The Day the Earth Stood Still [2008 DVDRip DUB лицензия] DJERG Скачать
1 | 0
Фильмы 2006-2008 [ 1.48 GB ] День когда Земля остановилась /The Day the Earth Stood Still [2008 ... DVDRip лицензия] kuvagen Скачать
1 | 0
Фильмы [HD 720p, 1080p] (Хороший звук DUB, MVO) [ 4.92 GB ] День когда Земля остановилась / Day the Earth Stood Still The [2008 BDRip ] POCIK Скачать
1 | 0


Последний раз редактировалось: -Lockdown- (2014-09-12 05:34), всего редактировалось 1 раз

28-11-2019 20:33  

Отключить всю рекламу на сайте

12-09-2014 05:26 День, когда Земля остановилась Скачать торрент  

О-скорее бы так и случилось,то о чём предупреждал этот инопланетянин.В реале!pb.wtf



    Дорогой пользователь! Огромная просьба, поблагодарите релизера, оцените раздачу и оставьте свои комментарий, если Вы скачали День, когда Земля остановилась через торрент бесплатно! Внесите свою лепту в развитие PiratBit!
    Комментировать посты могут только пользователи прошедшие не сложную регистрацию
    Показать сообщения:    

    День, когда Земля остановилась через торрент
    Скачать бесплатно День, когда Земля остановилась
    День, когда Земля остановилась скачать торрент
    День, когда Земля остановилась смотреть онлайн
    Cкачать фильм День, когда Земля остановилась бесплатно
    День, когда Земля остановилась скачать торрент в хорошем качестве
    День, когда Земля остановилась смотреть онлайн бесплатно в хорошем качестве


    Вы не можете начинать темы
    Вы не можете отвечать на сообщения
    Вы не можете редактировать свои сообщения
    Вы не можете удалять свои сообщения
    Вы не можете голосовать в опросах
    Вы не можете прикреплять файлы к сообщениям
    Вы можете скачивать файлы