1 сезон

iTunes

iTunes

1

Line

MVO

iTunes

13

1 сезон

RePack

30

Deluxe

pack

Лицензия

ВАЖНО

ИГРА 18+

pack

RePack

MK11

RePack

jed

RePack

fifa19

RePack

RDR2

RePack

NEED FOR SPEED™ PAYBACK

4 сезон

9 сезон

Бесстыжие 9 сезон

Все сериалы

все сериалы на PB.wtf

RePack

FAR CRY 5

Anonymous, добрый вечер, мы катастрофически не успеваем собрать деньги на оплату серверов, помогите нам пожалуйста 5,10,15р., для нас важна любая помощь . В качестве благодарности мы отключим Вам всю рекламу на сайте (укажите свой ник в строку Ваше имя)!

×
  
Magnet ссылка

Константин: Повелитель тьмы / Constantine (Френсис Лоуренс / Francis Lawrence) [2005, США, Германия, ужасы, фэнтези, драма, BDRip 720p, Dub, MVO, DVO, AVO) pb.wtf

Константин: Повелитель тьмы через торрент pb.wtf

Размер: 8.85 GB | Добавлен: 6 лет 10 мес. назад | Торрент скачан:178 раз
Скачать  

12-09-2014 05:32 Константин: Повелитель тьмы Скачать торрент  

Константин: Повелитель тьмы / Constantine

Год выпуска: 2005
Страна:США, Германия
Жанр: ужасы, фэнтези, драма
Продолжительность: 02:00:47
Перевод: Дубляж, Многоголосый, Двухголосый, Авторский (одноголосый)
Субтитры: русские, английские, Polish, Czech, немецкие, Finnish, Greek, Hungarian, китайские, Spanish, шведские.
Режиссер: Френсис Лоуренс / Francis Lawrence
В ролях:
Киану Ривз (John Constantine), Рейчел Вайс (Angela Dodson / Isabel Dodson), Тильда Суинтон (Gabriel), Шайа ЛаБаф (Chas Kramer), Джимон Хонсу (Midnite), Макс Бейкер (Beeman), Прюитт Тэйлор Винс (Father Hennessy), Гэвин Россдэйл (Balthazar), Петер Стормаре (Satan), Джесси Рамирес (Scavenger), Хосе Суньига (Detective Weiss), Френсис Гуинан (Father Garret)

Описание:
Джону Константину удалось не только побывать в аду, но и вернуться обратно. Родившись с неугодным самому себе талантом - способностью распознавать помесь ангелов и демонов, которые бродят по земле в облике людей, - Константин под давлением обстоятельств пытается совершить самоубийство, лишь бы избавиться от мучительных видений. Но неудачно. Воскрешенный против собственной воли он снова оказывается в мире живых. Теперь, отмеченный печатью суицида и получивший временное право на жизнь, он патрулирует границу, разделяющую рай и ад, тщетно надеясь на обретение спасения путем сражения с земными ставленниками зла.
Рейтинг:


Качество: BDRip 720p
Формат: MKV
Видео кодек: AVC
Аудио кодек:AC3, DTS, Vorbis
Видео: AVC, 1280x528 (2.40:1), 6050 kbps, 23,976 fps, 0,373 bpp
Аудио №1: русский / AC3 / 5.1 / 48 kHz / 640 kbps / 16 bit [Дублированный]
Аудио №2: украинский / AC3 / 2.0 / 48 kHz / 256 kbps / 16 bit [Многоголосый закадровый]
Аудио №3: русский / AC3 / 5.1 / 48 kHz / 448 kbps / 16 bit [Двухголосый закадровый - Tycoon]
Аудио №4: русский / DTS / 5.1 / 48 kHz / 755 kbps / 24 bit [Многоголосый закадровый - СуперБит]
Аудио №5: русский / DTS / 5.1 / 48 kHz / 755 kbps / 24 bit [Одноголосый закадровый - Гаврилов]
Аудио №6: английский / DTS / 5.1 / 48 kHz / 1510 kbps / 24 bit [Оригинал]
Аудио №7: английский / Vorbis / 1 / 44 kHz / 86 kbps / [Commentary]

Код:

General
Unique ID                                : 179947161843595794115703421336076909171 (0x8760900FBE0460B59F244BC089777A73)
Complete name                            : H:\Constantin.povelitel.tmi.2005.x264.BDRip_HDClub.mkv
Format                                   : Matroska
Format version                           : Version 1
File size                                : 8.85 GiB
Duration                                 : 2h 0mn
Overall bit rate mode                    : Variable
Overall bit rate                         : 10.5 Mbps
Movie name                               : Constantine (2005) - Release for HDClub
Encoded date                             : UTC 2009-05-17 16:27:52
Writing application                      : mkvmerge v2.1.0 ('Another Place To Fall') built on Aug 19 2007 13:40:07
Writing library                          : libebml v0.7.7 + libmatroska v0.8.1

Video
ID                                       : 1
Format                                   : AVC
Format/Info                              : Advanced Video Codec
Format profile                           : High@L3.1
Format settings, CABAC                   : Yes
Format settings, ReFrames                : 5 frames
Codec ID                                 : V_MPEG4/ISO/AVC
Duration                                 : 2h 0mn
Bit rate                                 : 6 050 Kbps
Width                                    : 1 280 pixels
Height                                   : 528 pixels
Display aspect ratio                     : 2.40:1
Frame rate                               : 23.976 fps
Color space                              : YUV
Chroma subsampling                       : 4:2:0
Bit depth                                : 8 bits
Scan type                                : Progressive
Bits/(Pixel*Frame)                       : 0.373
Stream size                              : 4.92 GiB (56%)
Title                                    : Release for HDClub
Writing library                          : x264 core 65 r999M cc51047
Encoding settings                        : cabac=1 / ref=5 / deblock=1:-3:-3 / analyse=0x3:0x133 / me=umh / subme=8 / psy_rd=1.0:0.0 / mixed_ref=1 / me_range=48 / chroma_me=1 / trellis=2 / 8x8dct=1 / cqm=0 / deadzone=21,11 / chroma_qp_offset=-2 / threads=6 / nr=0 / decimate=1 / mbaff=0 / bframes=16 / b_pyramid=1 / b_adapt=1 / b_bias=0 / direct=3 / wpredb=1 / keyint=250 / keyint_min=25 / scenecut=40(pre) / rc=2pass / bitrate=6050 / ratetol=1.0 / qcomp=0.60 / qpmin=10 / qpmax=51 / qpstep=4 / cplxblur=20.0 / qblur=0.5 / ip_ratio=1.40 / pb_ratio=1.30 / aq=1:1.00
Language                                 : English
Default                                  : Yes
Forced                                   : No

Audio #1
ID                                       : 2
Format                                   : AC-3
Format/Info                              : Audio Coding 3
Mode extension                           : CM (complete main)
Codec ID                                 : A_AC3
Duration                                 : 2h 0mn
Bit rate mode                            : Constant
Bit rate                                 : 640 Kbps
Channel(s)                               : 6 channels
Channel positions                        : Front: L C R, Side: L R, LFE
Sampling rate                            : 48.0 KHz
Bit depth                                : 16 bits
Compression mode                         : Lossy
Stream size                              : 553 MiB (6%)
Title                                    : AC3 5.1 @ 640 Дубляж
Language                                 : Russian
Default                                  : Yes
Forced                                   : No

Audio #2
ID                                       : 3
Format                                   : AC-3
Format/Info                              : Audio Coding 3
Mode extension                           : CM (complete main)
Codec ID                                 : A_AC3
Duration                                 : 2h 0mn
Bit rate mode                            : Constant
Bit rate                                 : 256 Kbps
Channel(s)                               : 2 channels
Channel positions                        : Front: L R
Sampling rate                            : 48.0 KHz
Bit depth                                : 16 bits
Compression mode                         : Lossy
Stream size                              : 221 MiB (2%)
Title                                    : AC3 2.0 @ 256 Многоголосый закадровый
Language                                 : Ukrainian
Default                                  : No
Forced                                   : No

Audio #3
ID                                       : 4
Format                                   : AC-3
Format/Info                              : Audio Coding 3
Mode extension                           : CM (complete main)
Codec ID                                 : A_AC3
Duration                                 : 2h 0mn
Bit rate mode                            : Constant
Bit rate                                 : 448 Kbps
Channel(s)                               : 6 channels
Channel positions                        : Front: L C R, Side: L R, LFE
Sampling rate                            : 48.0 KHz
Bit depth                                : 16 bits
Compression mode                         : Lossy
Stream size                              : 387 MiB (4%)
Title                                    : AC3 5.1 @ 448 Двухголосый закадровый - Tycoon
Language                                 : Russian
Default                                  : No
Forced                                   : No

Audio #4
ID                                       : 5
Format                                   : DTS
Format/Info                              : Digital Theater Systems
Codec ID                                 : A_DTS
Duration                                 : 2h 0mn
Bit rate mode                            : Constant
Bit rate                                 : 755 Kbps
Channel(s)                               : 6 channels
Channel positions                        : Front: L C R, Side: L R, LFE
Sampling rate                            : 48.0 KHz
Bit depth                                : 24 bits
Compression mode                         : Lossy
Stream size                              : 652 MiB (7%)
Title                                    : DTS 5.1 @ 768 Многоголосый закадровый - СуперБит
Language                                 : Russian
Default                                  : No
Forced                                   : No

Audio #5
ID                                       : 6
Format                                   : DTS
Format/Info                              : Digital Theater Systems
Codec ID                                 : A_DTS
Duration                                 : 2h 0mn
Bit rate mode                            : Constant
Bit rate                                 : 755 Kbps
Channel(s)                               : 6 channels
Channel positions                        : Front: L C R, Side: L R, LFE
Sampling rate                            : 48.0 KHz
Bit depth                                : 24 bits
Compression mode                         : Lossy
Stream size                              : 652 MiB (7%)
Title                                    : DTS 5.1 @ 768 Одноголосый закадровый - Гаврилов
Language                                 : Russian
Default                                  : No
Forced                                   : No

Audio #6
ID                                       : 7
Format                                   : DTS
Format/Info                              : Digital Theater Systems
Codec ID                                 : A_DTS
Duration                                 : 2h 0mn
Bit rate mode                            : Constant
Bit rate                                 : 1 510 Kbps
Channel(s)                               : 6 channels
Channel positions                        : Front: L C R, Side: L R, LFE
Sampling rate                            : 48.0 KHz
Bit depth                                : 24 bits
Compression mode                         : Lossy
Stream size                              : 1.27 GiB (14%)
Title                                    : DTS 5.1 @ 1536
Language                                 : English
Default                                  : No
Forced                                   : No

Audio #7
ID                                       : 8
Format                                   : Vorbis
Format settings, Floor                   : 1
Codec ID                                 : A_VORBIS
Duration                                 : 2h 0mn
Bit rate mode                            : Variable
Bit rate                                 : 86.0 Kbps
Channel(s)                               : 1 channel
Sampling rate                            : 44.1 KHz
Compression mode                         : Lossy
Stream size                              : 74.3 MiB (1%)
Title                                    : Vorbis 1.0 @ 86 Commentary
Writing library                          : libVorbis 1.0 (UTC 2002-07-17)
Language                                 : English
Default                                  : No
Forced                                   : No

Text #1
ID                                       : 9
Format                                   : UTF-8
Codec ID                                 : S_TEXT/UTF8
Codec ID/Info                            : UTF-8 Plain Text
Language                                 : Russian
Default                                  : No
Forced                                   : No

Text #2
ID                                       : 10
Format                                   : UTF-8
Codec ID                                 : S_TEXT/UTF8
Codec ID/Info                            : UTF-8 Plain Text
Language                                 : English
Default                                  : No
Forced                                   : No

Text #3
ID                                       : 11
Format                                   : UTF-8
Codec ID                                 : S_TEXT/UTF8
Codec ID/Info                            : UTF-8 Plain Text
Language                                 : Polish
Default                                  : No
Forced                                   : No

Text #4
ID                                       : 12
Format                                   : UTF-8
Codec ID                                 : S_TEXT/UTF8
Codec ID/Info                            : UTF-8 Plain Text
Language                                 : Czech
Default                                  : No
Forced                                   : No

Text #5
ID                                       : 13
Format                                   : UTF-8
Codec ID                                 : S_TEXT/UTF8
Codec ID/Info                            : UTF-8 Plain Text
Language                                 : German
Default                                  : No
Forced                                   : No

Text #6
ID                                       : 14
Format                                   : UTF-8
Codec ID                                 : S_TEXT/UTF8
Codec ID/Info                            : UTF-8 Plain Text
Language                                 : Finnish
Default                                  : No
Forced                                   : No

Text #7
ID                                       : 15
Format                                   : UTF-8
Codec ID                                 : S_TEXT/UTF8
Codec ID/Info                            : UTF-8 Plain Text
Language                                 : Greek
Default                                  : No
Forced                                   : No

Text #8
ID                                       : 16
Format                                   : UTF-8
Codec ID                                 : S_TEXT/UTF8
Codec ID/Info                            : UTF-8 Plain Text
Language                                 : Hungarian
Default                                  : No
Forced                                   : No

Text #9
ID                                       : 17
Format                                   : UTF-8
Codec ID                                 : S_TEXT/UTF8
Codec ID/Info                            : UTF-8 Plain Text
Language                                 : Chinese
Default                                  : No
Forced                                   : No

Text #10
ID                                       : 18
Format                                   : UTF-8
Codec ID                                 : S_TEXT/UTF8
Codec ID/Info                            : UTF-8 Plain Text
Language                                 : Spanish
Default                                  : No
Forced                                   : No

Text #11
ID                                       : 19
Format                                   : UTF-8
Codec ID                                 : S_TEXT/UTF8
Codec ID/Info                            : UTF-8 Plain Text
Language                                 : Swedish
Default                                  : No
Forced                                   : No

pb.wtf



Скачать Константин: Повелитель тьмы через торрент http://i1.imageban.ru/out/2014/09/12/b1be479115bfb339193d51c096c1b6f1.jpg Скачать фильм Константин: Повелитель тьмы через торрент бесплантно в хорошем качестве Описание: Джону Константину удалось не только побывать в аду, но и вернуться обратно. Родившись с неугодным самому себе талантом - ... 9.5 10 22
Info! Золотая раздача, скачанное не засчитывается.
Торрент: Зарегистрирован [2014-09-12 05:32] · скачан: 178 раз
Статус: √ проверено
Размер: 8.85 GB
Как cкачать? Как скачать Константин: Повелитель тьмы через торрент | UTorrent

% Раздел Тема Автор DL S | L
Фильмы (WEB-DL 720p, 1080p) [ 13.7 GB ] Константин: Повелитель тьмы / Constantine [2005 HD-DVDRip-HEVC 1080p] 2xDUB + MVO + 2хDVO + 7xAVO RealOldGamer Скачать
9 | 2
Фильмы [HD 720p, 1080p] (Хороший звук DUB, MVO) [ 18.68 GB ] Константин. Повелитель тьмы / Constantine [2005 BDRip 1080p by msltel] DUB MVO 2 x DVO 5 x AVO msltel Скачать
2 | 0
Фильмы [HD 720p, 1080p] (Хороший звук DUB, MVO) [ 7.01 GB ] Константин. Повелитель тьмы / Constantine [2005 BDRip 720p by msltel] DUB MVO 2 x DVO 5 x AVO msltel Скачать
2 | 0
Фильмы 2001-2005 [ 2.06 GB ] Константин: Повелитель тьмы / Constantine [2004 HDRip] DUB stalonе Скачать
1 | 0
R.G. Resident & PiratVoice - Фильмы, Видео [ 2.12 GB ] Константин: Повелитель тьмы / Constantine [2005 HDRip-AVC] DUB R.G.Resident schultz Скачать
1 | 0
Фильмы (HD 720p, 1080p) (48-60 fps) [ 5.38 GB ] Константин: Повелитель тьмы / Constantine [2005 BDRip 720p ] slaventi-69 Скачать
2 | 0
Фильмы (HD 720p, 1080p) (48-60 fps) [ 13.09 GB ] Константин: Повелитель тьмы / Constantine [2005 BDRip 1080p ] 60 fps -=DANTE=- Скачать
2 | 0

28-11-2019 20:33  

Отключить всю рекламу на сайте

30-10-2016 16:40 Константин: Повелитель тьмы Скачать торрент  

нет раздачи!pb.wtf



    Дорогой пользователь! Огромная просьба, поблагодарите релизера, оцените раздачу и оставьте свои комментарий, если Вы скачали Константин: Повелитель тьмы через торрент бесплатно! Внесите свою лепту в развитие PiratBit!
    Комментировать посты могут только пользователи прошедшие не сложную регистрацию
    Показать сообщения:    

    Константин: Повелитель тьмы через торрент
    Скачать бесплатно Константин: Повелитель тьмы
    Константин: Повелитель тьмы скачать торрент
    Константин: Повелитель тьмы смотреть онлайн
    Cкачать фильм Константин: Повелитель тьмы бесплатно
    Константин: Повелитель тьмы скачать торрент в хорошем качестве
    Константин: Повелитель тьмы смотреть онлайн бесплатно в хорошем качестве


    Вы не можете начинать темы
    Вы не можете отвечать на сообщения
    Вы не можете редактировать свои сообщения
    Вы не можете удалять свои сообщения
    Вы не можете голосовать в опросах
    Вы не можете прикреплять файлы к сообщениям
    Вы можете скачивать файлы