новый адрес
Ссылка на приватное зеркало всего за 1$. Внимание количество ограничено!!!

iTunes

1+1

iTunes

мы

WEB-DL

1

iTunes

Чернобыль

iTunes

Ральф против интернета

Лицензия

ПШазам

Лицензия

Оно 2

Лицензия

30
pack

Вам бонус

ВАЖНО

!!Акция!!

Alien_RageХит недели

RePack

Resident Evil 21

ИГРА 18+

pack

RePack

jed

!!Акция!!

Alien_Rage

RePack

fifa19

RePack

Assassins Creed: Odyssey

RePack

NEED FOR SPEED™ PAYBACK

3 сезон

9 сезон

Бесстыжие 9 сезон

Все сериалы

все сериалы на PB.wtf

RePack

FAR CRY 5
Ребята, катастрофически не хватает 1900р. для оплаты серверов за Октябрь (всвязи с блокировками трафик упал в 3 раза), 1-2р., выручайте.
  

Процесс (Константин Селиверстов) [2014 г., Классика, драма, артхаус, DVDRip] pb.wtf

Процесс через торрент pb.wtf

Размер: 1.45 GB | Добавлен: 5 лет 2 мес. назад | Торрент скачан:100 раз
Скачать  

12-09-2014 12:33 Процесс Скачать торрент  

Процесс

Год выпуска: 2014
Страна: Россия
Жанр: Классика, драма, артхаус
Продолжительность: 01:42:33
Язык: Русский

Режиссер: Константин Селиверстов

В ролях: Антон Шварц, Елена Шварева, Вилли Семенов, Наталья Шамина, Александр Анисимов, Андрей Шимко, Николай Молодожен, Игорь Головин, Виктория Нарахса, Феликс Модель, Владимир Космидайло

Описание: Экранизация романа Франца Кафки «Процесс». Герой фильма Йозеф К, банковский служащий, арестован по необоснованному обвинению. Но арест этот условный — Йозеф К. может вести обычную жизнь, время от времени являясь на допросы. Однако, чем дальше раскручивается процесс, тем все более парадоксальные формы он принимает. Герой фильма не может защититься от обвинения в частности ещё и потому, что никто не сообщает ему, в чем это обвинение состоит. Он пытается найти помощь у самых разных людей и никто ему в помощи не отказывает. Но беда в том, что все эти «помощники» так или иначе связаны с таинственным судом.

Качество: DVDRip
Формат: AVI
Видео кодек: XviD
Аудио кодек: AC3
Видео: XviD, 1822 Кбит/с, 704х400, 25.000 fps
Аудио: АС3, 2 ch, 192 Кбит/с, 48.0 KHz
General
Complete name : /home/sb753/files/Process.2014.XviD.DVDRip.olegek70.avi
Format : AVI
Format/Info : Audio Video Interleave
File size : 1.45 GiB
Duration : 1h 42mn
Overall bit rate : 2 024 Kbps
Writing application : VirtualDubModRus 1.5.10.2 (build 2542/release)
Writing library : VirtualDubMod build 2542/release

Video
ID : 0
Format : MPEG-4 Visual
Format profile : Advanced Simple@L5
Format settings, BVOP : 2
Format settings, QPel : No
Format settings, GMC : No warppoints
Format settings, Matrix : Default (MPEG)
Codec ID : XVID
Codec ID/Hint : XviD
Duration : 1h 42mn
Bit rate : 1 822 Kbps
Width : 704 pixels
Height : 400 pixels
Display aspect ratio : 16:9
Frame rate : 25.000 fps
Color space : YUV
Chroma subsampling : 4:2:0
Bit depth : 8 bits
Scan type : Progressive
Compression mode : Lossy
Bits/(Pixel*Frame) : 0.259
Stream size : 1.31 GiB (90%)
Writing library : XviD 1.2.1 (UTC 2008-12-04)

Audio
ID : 1
Format : AC-3
Format/Info : Audio Coding 3
Mode extension : CM (complete main)
Format settings, Endianness : Big
Codec ID : 2000
Duration : 1h 42mn
Bit rate mode : Constant
Bit rate : 192 Kbps
Channel(s) : 2 channels
Channel positions : Front: L R
Sampling rate : 48.0 KHz
Bit depth : 16 bits
Compression mode : Lossy
Stream size : 141 MiB (9%)
Alignment : Split accross interleaves
Interleave, duration : 40 ms (1.00 video frame)
Interleave, preload duration : 500 ms
pb.wtf



Скачать Процесс через торрент http://i63.fastpic.ru/big/2014/0912/46/5f1e66eb5b3bff1b61b8b1f17f5fef46.png Скачать фильм Процесс через торрент бесплантно в хорошем качестве Описание: Экранизация романа Франца Кафки «Процесс». Герой фильма Йозеф К, банковский служащий, арестован по необоснованному обвинению. Но ... 8.2 10 5
Торрент: Зарегистрирован [2014-09-12 12:33] · скачан: 100 раз
Статус: √ проверено
Размер: 1.45 GB
Как cкачать? Как скачать Процесс через торрент | qTorrent

% Раздел Тема Автор DL S | L
Софт для игр на PC [ 1 MB ] Far Cry 4 "Dual Core Fix. Фикс для запуска на двухъядерных процессорах" - Extreme Injector () [EN] Angry Beaver Скачать
2 | 1
Политика, религия [ 255 MB ] Новые правые в современном политическом процессе [2014 документальный WEBRip Оригинал] metanoia Скачать
1 | 0
Наши сериалы [ 2.37 GB ] Процесс / Серии: 4 из 4 / [2013 SATRip] -=Cherry=- Скачать
1 | 0
Информационно-аналитические и общественно-политические передачи [ 2.45 GB ] Название: Управление процессами. Вхождение в управление . Чернигов. [2011 документальный лекции CamRip] trezvo Скачать
1 | 0
Экстрим [ 700 MB ] Вбежавшая Темнота - Фильмы Процесса / A Shot In The Dark - Process Films [2011 Snowboarding DVDRip] RUNNI09 Скачать
1 | 0
Фильмы 2010 [ 1.36 GB ] Процесс / The Trial [2010 DVDRip] ACFIORENTINA Скачать
1 | 0
Фильмы 2010 [ 1.27 GB ] Процесс / Trial The [2010 DVDRip] Чупачупсик Скачать
1 | 0

28-11-2019 20:33  

Отключить всю рекламу на сайте

14-09-2014 09:18 Процесс Скачать торрент  

Впервые наткнулся на фильм (не порно), о котором нет страницы на кинопоиске.pb.wtf



    Дорогой пользователь! Огромная просьба, поблагодарите релизера, оцените раздачу и оставьте свои комментарий, если Вы скачали Процесс через торрент бесплатно! Внесите свою лепту в развитие PiratBit!
    Комментировать посты могут только пользователи прошедшие не сложную регистрацию
    Показать сообщения:    

    Процесс через торрент
    Скачать бесплатно Процесс
    Процесс скачать торрент
    Процесс смотреть онлайн
    Cкачать фильм Процесс бесплатно
    Процесс скачать торрент в хорошем качестве
    Процесс смотреть онлайн бесплатно в хорошем качестве


    Вы не можете начинать темы
    Вы не можете отвечать на сообщения
    Вы не можете редактировать свои сообщения
    Вы не можете удалять свои сообщения
    Вы не можете голосовать в опросах
    Вы не можете прикреплять файлы к сообщениям
    Вы можете скачивать файлы