2 сезон

iTunes

MVO

1

2 сезон

iTunes

iTunes

1 сезон

RePack

30

Ultimate

ВАЖНО

ИГРА 18+

pack

RePack

MK11
pack

Легкие деньги

RePack

jed

RePack

fifa19

RePack

RDR2

RePack

NEED FOR SPEED™ PAYBACK

4 сезон

9 сезон

Бесстыжие 9 сезон

Все сериалы

все сериалы на PB.wtf

RePack

FAR CRY 5

Anonymous, добрый вечер, мы не успеваем собрать деньги на оплату серверов за декабрь и январь, помогите нам пожалуйста в это трудное время. В качестве благодарности мы отключим Вам всю рекламу на сайте (укажите свой ник в строку Ваше имя)!

×
  
Magnet ссылка

Очень хорошие девочки / Very Good Girls (Наоми Фонер) [2013, драма, HDRip, Профессиональный многоголосый [НТВ+] pb.wtf

Очень хорошие девочки через торрент pb.wtf

Размер: 1.47 GB | Добавлен: 6 лет 4 мес. назад | Торрент скачан:269 раз
Скачать  

12-09-2014 12:58 Очень хорошие девочки Скачать торрент  

Очень хорошие девочки / Very Good Girls


Год выпуска: 2013
Страна: США
Жанр:драма
Продолжительность:01:30:50
Перевод:Профессиональный многоголосый [НТВ+]
Режиссер:Наоми Фонер

  • В ролях:

    Дакота Фаннинг (Lilly), Элизабет Олсен (Gerri), Бойд Холбрук (David), Эллен Баркин (Norma), Ричард Дрейфусс (Danny), Деми Мур (Kate), Стерлинг Джонс (Beach Boy), Lenny Arroyo-Platt (Beach Boy), Кирнан Шипка (Eleanor), Клер Фоли (Phoebe), Roslyn Curry (Joy), Кларк Грегг (Edward)

  • Описание:
    Две нью-йоркские девушки договариваются потерять свою девственность в первое лето после окончания школы. Но получается так, что они обе влюбляются в одного уличного артиста...

  • Мировая премьера:22 января 2013

    Качество: HDRip
    Формат:AVI
    Видео кодек: XviD
    Аудио кодек:AC3
    Видео: XviD, 720x304 (2.35:1), 1919 kbps, 23,976 fps, 0,366 bpp
    Аудио: AC3 / 5.1 / 48 kHz / 384 kbps / 16 bit


    Код:

    General
    Complete name                            : D:\Торенты\Very.Good.Girls.2013.P.HDRip.1.46Gb.avi
    Format                                   : AVI
    Format/Info                              : Audio Video Interleave
    File size                                : 1.47 GiB
    Duration                                 : 1h 30mn
    Overall bit rate                         : 2 313 Kbps
    Writing application                      : VirtualDubMod 1.5.10.3 | www.virtualdub-fr.org || (build 2550/release)
    Writing library                          : VirtualDubMod build 2550/release

    Video
    ID                                       : 0
    Format                                   : MPEG-4 Visual
    Format profile                           : Advanced Simple@L5
    Format settings, BVOP                    : 1
    Format settings, QPel                    : No
    Format settings, GMC                     : No warppoints
    Format settings, Matrix                  : Custom
    Codec ID                                 : XVID
    Codec ID/Hint                            : XviD
    Duration                                 : 1h 30mn
    Bit rate                                 : 1 920 Kbps
    Width                                    : 720 pixels
    Height                                   : 304 pixels
    Display aspect ratio                     : 2.35:1
    Frame rate                               : 23.976 fps
    Color space                              : YUV
    Chroma subsampling                       : 4:2:0
    Bit depth                                : 8 bits
    Scan type                                : Progressive
    Compression mode                         : Lossy
    Bits/(Pixel*Frame)                       : 0.366
    Stream size                              : 1.22 GiB (83%)
    Writing library                          : XviD 73

    Audio
    ID                                       : 1
    Format                                   : AC-3
    Format/Info                              : Audio Coding 3
    Mode extension                           : CM (complete main)
    Codec ID                                 : 2000
    Duration                                 : 1h 30mn
    Bit rate mode                            : Constant
    Bit rate                                 : 384 Kbps
    Channel(s)                               : 6 channels
    Channel positions                        : Front: L C R, Side: L R, LFE
    Sampling rate                            : 48.0 KHz
    Bit depth                                : 16 bits
    Compression mode                         : Lossy
    Stream size                              : 250 MiB (17%)
    Alignment                                : Split accross interleaves
    Interleave, duration                     : 42 ms (1.00 video frame)
    Interleave, preload duration             : 500 ms

    Скриншоты:

    Срочно! Нужна помощь! pb.wtf



  • Скачать Очень хорошие девочки через торрент https://pic.kartinco.top/images/6/stazu.jpg Скачать фильм Очень хорошие девочки через торрент бесплантно в хорошем качестве Описание:Две нью-йоркские девушки договариваются потерять свою девственность в первое лето после окончания школы. Но получается так, что ... 8.2 10 9
    Торрент: Зарегистрирован [2014-09-12 12:58] · скачан: 269 раз
    Статус: √ проверено
    Размер: 1.47 GB
    Как cкачать? Как скачать Очень хорошие девочки через торрент | UTorrent

    % Раздел Тема Автор DL S | L
    Фильмы [HD 720p, 1080p] (Хороший звук DUB, MVO) [ 4.08 GB ] Очень хорошие девочки / Very Good Girls [2013 BDRip 720p многоголосый ] кэп Скачать
    1 | 0

    28-11-2019 20:33  

    Отключить всю рекламу на сайте


      Дорогой пользователь! Огромная просьба, поблагодарите релизера, оцените раздачу и оставьте свои комментарий, если Вы скачали Очень хорошие девочки через торрент бесплатно! Внесите свою лепту в развитие PiratBit!
      Комментировать посты могут только пользователи прошедшие не сложную регистрацию
      Показать сообщения:    

      Очень хорошие девочки через торрент
      Скачать бесплатно Очень хорошие девочки
      Очень хорошие девочки скачать торрент
      Очень хорошие девочки смотреть онлайн
      Cкачать фильм Очень хорошие девочки бесплатно
      Очень хорошие девочки скачать торрент в хорошем качестве
      Очень хорошие девочки смотреть онлайн бесплатно в хорошем качестве


      Вы не можете начинать темы
      Вы не можете отвечать на сообщения
      Вы не можете редактировать свои сообщения
      Вы не можете удалять свои сообщения
      Вы не можете голосовать в опросах
      Вы не можете прикреплять файлы к сообщениям
      Вы можете скачивать файлы