2 сезон

iTunes

MVO

1

2 сезон

iTunes

iTunes

1 сезон

RePack

30

Ultimate

ВАЖНО

ИГРА 18+

pack

RePack

MK11
pack

Легкие деньги

RePack

jed

RePack

fifa19

RePack

RDR2

RePack

NEED FOR SPEED™ PAYBACK

4 сезон

9 сезон

Бесстыжие 9 сезон

Все сериалы

все сериалы на PB.wtf

RePack

FAR CRY 5

Anonymous, добрый вечер, мы не успеваем собрать деньги на оплату серверов за декабрь и январь, помогите нам пожалуйста в это трудное время. В качестве благодарности мы отключим Вам всю рекламу на сайте (укажите свой ник в строку Ваше имя)!

×
  
Magnet ссылка

Когда я умирала / As I Lay Dying (Джеймс Франко) [2013 г., драма, HDRip, Профессиональный многоголосый] Кинопоказ pb.wtf

Когда я умирала через торрент pb.wtf

Размер: 1.46 GB | Добавлен: 6 лет 4 мес. назад | Торрент скачан:203 раза
Скачать  

12-09-2014 17:11 Когда я умирала Скачать торрент  

Когда я умирала / As I Lay Dying

Год выпуска: 2013
Страна: США
Жанр: драма
Продолжительность: 01:50:00
Перевод: Профессиональный многоголосый Кинопоказ

Режиссер: Джеймс Франко
Продюссер: Кэролайн Арагон, Ли Кэплин, Винс Джоливетт
Сценарий: Джеймс Франко, Мэтт Рэйджер, Уильям Фолкнер
Премьера в мире: 20 мая 2013

IMDB 5.40 (2161)


В ролях: Джеймс Франко, Тим Блейк Нельсон, Джим Пэррак, Ана О’Райли, Логан Маршалл-Грин, Брэйди Перментер, Дэнни МакБрайд, Бет Грант, Брайан Лэлли, Дженнифер Кристен Хауэлл

Описание: Семейство везет умирающую Адди Бандрен, чтобы похоронить ее согласно предсмертной воле в родном городе Джефферсоне. Все это будет сопровождаться разными приключениями.

Качество: HDRip
Формат: AVI
Видео кодек: XviD
Аудио кодек: AC3
Видео: MPEG4, XviD, 720x304 (2.35), 23.976 fps, 1 306 Kbps (0.249 bit/pixel)
Аудио#1: AC-3, 48.0 KHz, 2 ch, 192 Kbps, CBR - русский
Аудио#2: AC-3, 48.0 KHz, 6 ch, 384 Kbps, CBR - английский
Формат : AVI
Формат/Информация : Audio Video Interleave
Размер файла : 1,46 Гбайт
Продолжительность : 1 ч. 50 м.
Общий поток : 1896 Кбит/сек
Программа кодирования : VirtualDubMod 1.5.10.2 (build 2540/release)
Библиотека кодирования : VirtualDubMod build 2540/release

Видео
Идентификатор : 0
Формат : MPEG-4 Visual
Профиль формата : Advanced Simple@L5
Параметр BVOP формата : 1
Параметр QPel формата : Нет
Параметр GMC формата : Без точки перехода
Параметр матрицы формата : Выборочная
Идентификатор кодека : XVID
Идентификатор кодека/Подсказка : XviD
Продолжительность : 1 ч. 50 м.
Битрейт : 1306 Кбит/сек
Ширина : 720 пикселей
Высота : 304 пикселя
Соотношение сторон : 2,35:1
Частота кадров : 23,976 кадра/сек
Цветовое пространство : YUV
Субдискретизация насыщенности : 4:2:0
Битовая глубина : 8 бит
Тип развёртки : Прогрессивная
Метод сжатия : С потерями
Бит/(Пиксели*Кадры) : 0.249
Размер потока : 1,00 Гбайт (69%)
Библиотека кодирования : XviD 65

Аудио #1
Идентификатор : 1
Формат : AC-3
Формат/Информация : Audio Coding 3
Расширение режима : CM (complete main)
Параметр Endianness формата : Big
Идентификатор кодека : 2000
Продолжительность : 1 ч. 50 м.
Вид битрейта : Постоянный
Битрейт : 192 Кбит/сек
Каналы : 2 канала
Расположение каналов : Front: L R
Частота : 48,0 КГц
Битовая глубина : 16 бит
Метод сжатия : С потерями
Размер потока : 151 Мбайт (10%)
Выравнивание : Разделение по промежуткам
Продолжительность промежутка : 42 мс. (1,00 видеокадр)
Время предзагрузки промежутка : 500 мс.
Заголовок : Профессиональный (многоголосый закадровый) Кинопоказ

Аудио #2
Идентификатор : 2
Формат : AC-3
Формат/Информация : Audio Coding 3
Расширение режима : CM (complete main)
Параметр Endianness формата : Big
Идентификатор кодека : 2000
Продолжительность : 1 ч. 50 м.
Вид битрейта : Постоянный
Битрейт : 384 Кбит/сек
Каналы : 6 каналов
Расположение каналов : Front: L C R, Side: L R, LFE
Частота : 48,0 КГц
Битовая глубина : 16 бит
Метод сжатия : С потерями
Размер потока : 302 Мбайт (20%)
Выравнивание : Разделение по промежуткам
Продолжительность промежутка : 42 мс. (1,00 видеокадр)
Время предзагрузки промежутка : 500 мс.
Заголовок : Английский
pb.wtf



Скачать Когда я умирала через торрент http://i67.fastpic.ru/big/2014/0912/3e/43b177cb7ad3296a42420d97cd0cc23e.png Скачать фильм Когда я умирала через торрент бесплантно в хорошем качестве Описание: Семейство везет умирающую Адди Бандрен, чтобы похоронить ее согласно предсмертной воле в родном городе Джефферсоне. Все это будет ... 8.5 10 6
Торрент: Зарегистрирован [2014-09-12 17:11] · скачан: 203 раз
Статус: √ проверено
Размер: 1.46 GB
Как cкачать? Как скачать Когда я умирала через торрент | UTorrent

28-11-2019 20:33  

Отключить всю рекламу на сайте

25-09-2014 15:53 Когда я умирала Скачать торрент  

экранизация романа Уильяма Фолкнера, где повествование ведется от лица, кажется, 15 рассказчиков. Смесь сельского говора с изощренным модернизмом - представьте Шукшина с установками какого-нибудь Кржижановского :-)pb.wtf



    Дорогой пользователь! Огромная просьба, поблагодарите релизера, оцените раздачу и оставьте свои комментарий, если Вы скачали Когда я умирала через торрент бесплатно! Внесите свою лепту в развитие PiratBit!
    Комментировать посты могут только пользователи прошедшие не сложную регистрацию
    Показать сообщения:    

    Когда я умирала через торрент
    Скачать бесплатно Когда я умирала
    Когда я умирала скачать торрент
    Когда я умирала смотреть онлайн
    Cкачать фильм Когда я умирала бесплатно
    Когда я умирала скачать торрент в хорошем качестве
    Когда я умирала смотреть онлайн бесплатно в хорошем качестве


    Вы не можете начинать темы
    Вы не можете отвечать на сообщения
    Вы не можете редактировать свои сообщения
    Вы не можете удалять свои сообщения
    Вы не можете голосовать в опросах
    Вы не можете прикреплять файлы к сообщениям
    Вы можете скачивать файлы