Ссылка на приватное зеркало всего за 1$. Внимание количество ограничено!!!

iTunes

1+1

iTunes

мы

WEB-DL

1

iTunes

Чернобыль

iTunes

Ральф против интернета

Лицензия

ПШазам

Лицензия

Оно 2

Лицензия

30
pack

Вам бонус

ВАЖНО

!!Акция!!

Alien_RageХит недели

RePack

Resident Evil 21

ИГРА 18+

pack

RePack

jed

!!Акция!!

Alien_Rage

RePack

fifa19

RePack

Assassins Creed: Odyssey

RePack

NEED FOR SPEED™ PAYBACK

3 сезон

9 сезон

Бесстыжие 9 сезон

Все сериалы

все сериалы на PB.wtf

RePack

FAR CRY 5
Ребята, катастрофически не хватает 1900р. для оплаты серверов за Октябрь (всвязи с блокировками трафик упал в 3 раза), 1-2р., выручайте.
  

Только Бог простит / Only God Forgives (Николас Виндинг Рефн / Nicolas Winding Refn) [ 2013 , Дания, Франция, Таиланд, США, Швеция , триллер, драма, криминал , HDRip] VO Назаров Владимир pb.wtf

Только Бог простит через торрент pb.wtf

Размер: 749 MB | Добавлен: 5 лет 10 мес. назад | Торрент скачан:79 раз
Скачать  

29-12-2013 07:11 Только Бог простит Скачать торрент  

Только Бог простит / Only God ForgivesГод выпуска:2013
Страна: Дания, Франция, Таиланд, США, Швеция
Жанр: триллер, драма, криминал

Продолжительность: 01:29:36
Перевод: Одноголосый закадровый (Назаров Владимир)

Субтитры: Нет
Режиссер: Николас Виндинг Рефн / Nicolas Winding Refn

В ролях: Райан Гослинг (Julian), Кристин Скотт Томас (Crystal), Витхая Пансрингарм (Chang), Гордон Браун (Gordon), Ейяинг Рхатха Пхонгам (Mai), Том Бёрк (Billy), Сахайак Бунсанакит (Kim), Питчават Петчаяхон (Phaiban), Чарли Рюдпоканон (Daeng), Ковит Ваттанакуль (Choi Yan Lee), Ванниса Пеунгпа (Kanita), Наруча Чаймареунг (Papa San)
Описание:
Джулиан, бежавший от американского правосудия, руководит в Бангкоке клубом тайского бокса, который служит ему прикрытием для торговли наркотиками. Его мать, глава крупной преступной организации, приезжает из США, чтобы забрать тело своего любимого сына Билли: брата Джулиана только что убили за зверскую расправу над молодой проституткой. Охваченная яростью и жаждой мести мать требует, чтобы Джулиан нашел и покарал убийц. Молодому человеку придется столкнуться с Чангом - странным полицейским на пенсии, которого обожают его коллеги.
Рейтинг
kinopoisk.ru: 6.220 (3641)
imdb.com: 5.90 (45 546)
MPAA: R - Лицам до 17 лет обязательно присутствие взрослого
Качество: HDRip
Формат: AVI
Видео кодек: XviD
Аудио кодек: MP3
Видео: XviD, 624x336 (1.857), 1031 kbps, 23,976 fps, 0,205 bpp
Аудио: MP3 / 2.0 / 48 kHz / 128 kbps /

Внимание! Присутствует ненормативная лексика! © Оформление by ФёдорOFF
General
Complete name : D:раздачиOnly.God.Forgives.2013.HDRip.avi
Format : AVI
Format/Info : Audio Video Interleave
File size : 749 MiB
Duration : 1h 29mn
Overall bit rate : 1 169 Kbps

Video
ID : 0
Format : MPEG-4 Visual
Format profile : Advanced Simple@L5
Format settings, BVOP : 1
Format settings, QPel : No
Format settings, GMC : No warppoints
Format settings, Matrix : Custom
Codec ID : XVID
Codec ID/Hint : XviD
Duration : 1h 29mn
Bit rate : 1 031 Kbps
Width : 624 pixels
Height : 336 pixels
Display aspect ratio : 1.857
Frame rate : 23.976 fps
Color space : YUV
Chroma subsampling : 4:2:0
Bit depth : 8 bits
Scan type : Progressive
Compression mode : Lossy
Bits/(Pixel*Frame) : 0.205
Stream size : 661 MiB (88%)

Audio
ID : 1
Format : MPEG Audio
Format version : Version 1
Format profile : Layer 3
Codec ID : 55
Codec ID/Hint : MP3
Duration : 1h 29mn
Bit rate mode : Constant
Bit rate : 128 Kbps
Channel(s) : 2 channels
Sampling rate : 48.0 KHz
Compression mode : Lossy
Stream size : 82.0 MiB (11%)
Alignment : Aligned on interleaves
Interleave, duration : 42 ms (1.00 video frame)
Interleave, preload duration : 504 ms
pb.wtf



Скачать Только Бог простит через торрент http://i3.imageban.ru/out/2013/12/29/f0bff73b01b4045d23981e9933fb0709.jpg Скачать фильм Только Бог простит через торрент бесплантно в хорошем качестве Описание: Джулиан, бежавший от американского правосудия, руководит в Бангкоке клубом тайского бокса, который служит ему прикрытием для ... 8.9 10 9
Info! Золотая раздача, скачанное не засчитывается.
Торрент: Зарегистрирован [2014-02-11 10:17] · скачан: 79 раз
Статус: √ проверено
Размер: 749 MB
Как cкачать? Как скачать Только Бог простит через торрент | qTorrent



Последний раз редактировалось: ФёдорOFF (2013-12-29 07:52), всего редактировалось 4 раз(а)

28-11-2019 20:33  

Отключить всю рекламу на сайте

29-12-2013 07:30 Только Бог простит Скачать торрент  

Allod писал(а):

Сэмпл!?В студию,пожалуйста

http://rghost.ru/private/51276105/5381e1a10bebd47e5f04660e324250ed

На мульти ап не зайти( как только получится перезалью на негоpb.wtf



29-12-2013 07:45 Только Бог простит Скачать торрент  

Это не VO , а AVO!!!pb.wtf



29-12-2013 07:50 Только Бог простит Скачать торрент  

ФёдорOFF
список AVO на e180
http://www.e180.ru/trinfo.phppb.wtf



29-12-2013 07:54 Только Бог простит Скачать торрент  

Messa-fan писал(а):

ФёдорOFF
список AVO на e180
http://www.e180.ru/trinfo.php

Спасибо,впредь буду внимательнейpb.wtf



29-12-2013 07:55 Только Бог простит Скачать торрент  

ФёдорOFF
и вот списов AVO + профессиональных одноголосых не поглощаемых у нас на трекере
Леонид Володарский
Андрей Дольский
Дмитрий Пучков
Павел Санаев
Юрий Сербин
Алексеев Антон
Визгунов Сергей
Гаврилов Андрей
Горчаков Василий
Готлиб Александр
Гранкин Евгений
Дохалов Вартан
Дубровин Владимир
Дьяконов Константин
Живаго Николай
Живов Юрий
Иванов Михаил
Иващенко Петр (aka Гланц)
Карповский (Боровой) Антон
Карцев Петр
Кашкин (Первомайский) Александр
Козлов Сергей
Королев Владимир
Кузнецов Сергей
Латышев Максим (Егор Хрусталев)
Либергал Григорий
Марченко Александр
Махонько Виктор
Михалёв Алексей
Медведев Алексей
Мудров Андрей
Немахов Юрий (aka Yuriy Demigod)
Пикулев Сергей
Пронин Антон
Рудой Евгений
Рябов Сергей
Толбин Юрий (Николаев)
Швецов Игорь
Штейн Владимир
Шиндяпин Эдуард
Янкилевич Роман
pb.wtf



29-12-2013 07:59 Только Бог простит Скачать торрент  

Messa-fan
Благодарю
pb.wtf



    Дорогой пользователь! Огромная просьба, поблагодарите релизера, оцените раздачу и оставьте свои комментарий, если Вы скачали Только Бог простит через торрент бесплатно! Внесите свою лепту в развитие PiratBit!
    Комментировать посты могут только пользователи прошедшие не сложную регистрацию
    Показать сообщения:    

    Только Бог простит через торрент
    Скачать бесплатно Только Бог простит
    Только Бог простит скачать торрент
    Только Бог простит смотреть онлайн
    Cкачать фильм Только Бог простит бесплатно
    Только Бог простит скачать торрент в хорошем качестве
    Только Бог простит смотреть онлайн бесплатно в хорошем качестве


    Вы не можете начинать темы
    Вы не можете отвечать на сообщения
    Вы не можете редактировать свои сообщения
    Вы не можете удалять свои сообщения
    Вы не можете голосовать в опросах
    Вы не можете прикреплять файлы к сообщениям
    Вы можете скачивать файлы