Ссылка на приватное зеркало нашего сайта всего за 1$. Внимание количество ограничено!!!

2 сезон

iTunes

1 сезон

1

2 сезон

2 сезон

iTunes

1 сезон

RePack

30

Новинка

ВАЖНО

ИГРА 18+

pack

RePack

MK11
pack

Забери бонус

RePack

jed

!!Акция!!

Alien_Rage

RePack

fifa19

RePack

Assassins Creed: Odyssey

RePack

NEED FOR SPEED™ PAYBACK

4 сезон

9 сезон

Бесстыжие 9 сезон

Все сериалы

все сериалы на PB.wtf

RePack

FAR CRY 5
  

Малефисента / Maleficent (Роберт Стромберг / Robert Stromberg) [2014, США, Великобритания, фэнтези, семейный, мелодрама, BD Remux] DUB Лицензия pb.wtf

Малефисента через торрент pb.wtf

Размер: 22.83 GB | Добавлен: 6 лет 2 мес. назад | Торрент скачан:255 раз
Скачать  

12-09-2014 21:06 Малефисента Скачать торрент  

Малефисента / Maleficent«Не верьте сказкам»
Год выпуска: 2014
Страна: США, Великобритания
Жанр: фэнтези, семейный, мелодрама, приключения
Продолжительность: 01:37:28
Перевод: Дубляж - [Лицензия]
Субтитры: Русские, Английские
Режиссер: Роберт Стромберг / Robert Stromberg
В ролях:


Анджелина Джоли (Maleficent), Эль Фаннинг (Aurora), Шарлто Копли (Stefan), Лесли Мэнвилл (Flittle), Имелда Стонтон (Knotgrass), Джуно Темпл (Thistletwit), Сэм Райли (Diaval), Брентон Туэйтс (Prince Phillip), Кеннет Крэнэм (King Henry), Сара Флинд (Princess Leila's Handmaiden), Ханна Нью (Queen Leah), Изобель Моллой (Young Maleficent)

Описание:
Юная волшебница Малефисента вела уединенную жизнь в зачарованном лесу, окруженная сказочными существами, но однажды все изменилось... В её мир вторглись люди, которые принесли с собой разрушение и хаос, и Малефисенте пришлось встать на защиту своих подданных, призвав на помощь могущественные тёмные силы. В пылу борьбы Малефисента наложила страшное заклятие на новорожденную дочь короля, прекрасную Аврору. Но, наблюдая за тем, как растет маленькая принцесса, Малефисента начинает сомневаться в правильности своего поступка - ведь, возможно, именно Аврора может вдохнуть новую жизнь в волшебное лесное царство.

Рейтинг:
Бюджет:$180 000 000
MPAA: PG - Рекомендуется присутствие родителей
Качество: BD Remux
Формат: MKV
Видео кодек:AVC
Аудио кодек:AC3, DTS-HD
Видео: MPEG-4 AVC/H.264, 1920x1080 (2.40:1), ~28212 kbps (0.614 bit/pixel), 23.976 fps
Аудио №1: AC3 5.1, 640 kbps, 48 kHz, 16-bit [Русский - дублированный «Blu-ray EUR»]
Аудио №2: DTS-HD MA 7.1, 4858 kbps, 48 kHz, 24-bit [Английский - оригинал]

Код:

Полное имя : D:\Малефисента-Maleficent.(2014).BDRemux.[1080p].mkv
Формат : Matroska
Версия формата : Version 2
Размер файла : 22,8 Гбайт
Продолжительность : 1 ч. 37 м.
Режим общего битрейта : Переменный
Общий поток : 33,5 Мбит/сек
Название фильма : Maleficent (2014)
Дата кодирования : UTC 2014-09-12 15:13:03
Программа кодирования : mkvmerge v5.7.0 ('The Whirlwind') built on Aug 7 2012 14:11:40
Библиотека кодирования : libebml v1.2.3 + libmatroska v1.3.0
Attachment : Yes

Видео
Идентификатор : 1
Формат : AVC
Формат/Информация : Advanced Video Codec
Профиль формата : High@L4.1
Параметр CABAC формата : Да
Параметр ReFrames формата : 4 кадра
Идентификатор кодека : V_MPEG4/ISO/AVC
Продолжительность : 1 ч. 37 м.
Вид битрейта : Переменный
Битрейт : 30,5 Мбит/сек
Максимальный битрейт : 33,5 Мбит/сек
Ширина : 1920 пикселей
Высота : 1080 пикселей
Соотношение сторон : 16:9
Режим частоты кадров : Постоянный
Частота кадров : 23,976 кадра/сек
Цветовое пространство : YUV
Субдискретизация насыщенности : 4:2:0
Битовая глубина : 8 бит
Тип развёртки : Прогрессивная
Бит/(Пиксели*Кадры) : 0.614
Размер потока : 20,8 Гбайт (91%)
Заголовок : Малефисента-Maleficent.(2014).BDRemux.[1080p]
Язык : English
Default : Да
Forced : Нет

Аудио #1
Идентификатор : 2
Формат : AC-3
Формат/Информация : Audio Coding 3
Расширение режима : CM (complete main)
Параметр Endianness формата : Big
Идентификатор кодека : A_AC3
Продолжительность : 1 ч. 37 м.
Вид битрейта : Постоянный
Битрейт : 640 Кбит/сек
Каналы : 6 каналов
Расположение каналов : Front: L C R, Side: L R, LFE
Частота : 48,0 КГц
Битовая глубина : 16 бит
Метод сжатия : С потерями
Размер потока : 446 Мбайт (2%)
Заголовок : AC3 5.1 / 640 Kbps / Dub (Blu-ray EUR)
Язык : Russian
Default : Да
Forced : Нет

Аудио #2
Идентификатор : 3
Формат : DTS
Формат/Информация : Digital Theater Systems
Профиль формата : MA / Core
Идентификатор кодека : A_DTS
Продолжительность : 1 ч. 37 м.
Вид битрейта : Переменный
Битрейт : 1729 Кбит/сек / 1510 Кбит/сек
Каналы : 8 каналов / 6 каналов
Расположение каналов : Front: L C R, Side: L R, Back: L R, LFE / Front: L C R, Side: L R, LFE
Частота : 48,0 КГц
Битовая глубина : 24 бит
Метод сжатия : Без потерь / Lossy
Заголовок : DTS-HD MA 7.1 / 4858 kbps / Original
Язык : English
Default : Нет
Forced : Нет

Текст #1
Идентификатор : 4
Формат : UTF-8
Идентификатор кодека : S_TEXT/UTF8
Идентификатор кодека/Информация : UTF-8 Plain Text
Заголовок : Full
Язык : Russian
Default : Нет
Forced : Нет

Текст #2
Идентификатор : 5
Формат : UTF-8
Идентификатор кодека : S_TEXT/UTF8
Идентификатор кодека/Информация : UTF-8 Plain Text
Заголовок : Full
Язык : English
Default : Нет
Forced : Нет

Меню
00:00:00.000 : en:Chapter 1
00:03:00.597 : en:Chapter 2
00:08:10.948 : en:Chapter 3
00:14:00.756 : en:Chapter 4
00:19:10.607 : en:Chapter 5
00:25:59.057 : en:Chapter 6
00:33:09.737 : en:Chapter 7
00:38:30.808 : en:Chapter 8
00:43:21.140 : en:Chapter 9
00:46:56.104 : en:Chapter 10
00:51:11.943 : en:Chapter 11
00:54:18.797 : en:Chapter 12
00:58:37.722 : en:Chapter 13
01:01:58.047 : en:Chapter 14
01:05:09.989 : en:Chapter 15
01:09:56.775 : en:Chapter 16
01:15:40.619 : en:Chapter 17
01:17:43.659 : en:Chapter 18
01:25:44.931 : en:Chapter 19
01:28:38.646 : en:Chapter 20

pb.wtf



Скачать Малефисента через торрент http://s016.radikal.ru/i335/1409/6a/99ddc4253d7c.gif Скачать фильм Малефисента через торрент бесплантно в хорошем качестве Описание: Юная волшебница Малефисента вела уединенную жизнь в зачарованном лесу, окруженная сказочными существами, но однажды все ... 9.7 10 10
Торрент: Зарегистрирован [2014-09-12 21:06] · скачан: 255 раз
Статус: √ проверено
Размер: 22.83 GB
Как cкачать? Как скачать Малефисента через торрент | qTorrent

% Раздел Тема Автор DL S | L
Ultra HD (UHD: 2K, 4K, 8K) — видео сверхвысокой чёткости [ 16.73 GB ] Малефисента / Maleficent [2014 UHD BDRip 2160p] DUB [] bober100 Скачать
1 | 0
Ultra HD (UHD: 2K, 4K, 8K) — видео сверхвысокой чёткости [ 49.79 GB ] Малефисента / Maleficent [2014 UHD BDRemux 2160p] DUB [] bober100 Скачать
1 | 0
3D Фильмы [ 12.7 GB ] Малефисента / Maleficent [2014 BDRip 1080p 3D] DUB / Вертикальная анаморфная стереопара Ворон Скачать
1 | 0
3D Фильмы [ 37.13 GB ] Малефисента / Maleficent [2014 Blu-ray 3D] DUB _KaisiK_ Скачать
1 | 0
Фильмы (Blu-ray, BD-Remux, HDDVD) [ 32.5 GB ] Малефисента / Maleficent [2014 Blu-ray] DUB Ворон Скачать
1 | 0
Фильмы (HD 720p, 1080p) (48-60 fps) [ 3.61 GB ] Малефисента / Maleficent [2014 BDRip 720p] DUB [hand made 60fps] _KaisiK_ Скачать
1 | 0
Фильмы 2014 [DVDrip, WEB-DLRip, HDrip] [ 1.46 GB ] Малефисента / Maleficent [2014 BDRip-AVC] DUB potroks Скачать
2 | 0

28-11-2019 20:33  

Отключить всю рекламу на сайте

    Дорогой пользователь! Огромная просьба, поблагодарите релизера, оцените раздачу и оставьте свои комментарий, если Вы скачали Малефисента через торрент бесплатно! Внесите свою лепту в развитие PiratBit!
    Комментировать посты могут только пользователи прошедшие не сложную регистрацию
    Показать сообщения:    

    Малефисента через торрент
    Скачать бесплатно Малефисента
    Малефисента скачать торрент
    Малефисента смотреть онлайн
    Cкачать фильм Малефисента бесплатно
    Малефисента скачать торрент в хорошем качестве
    Малефисента смотреть онлайн бесплатно в хорошем качестве


    Вы не можете начинать темы
    Вы не можете отвечать на сообщения
    Вы не можете редактировать свои сообщения
    Вы не можете удалять свои сообщения
    Вы не можете голосовать в опросах
    Вы не можете прикреплять файлы к сообщениям
    Вы можете скачивать файлы