Доктор Стрэндж

Лицензия

Добыча

MVO

Дом дракона

1 сезон

Тор

Лицензия

Мэверик

Лицензия

Там, где раки поют

MVO

Властелин колец

1 сезон

Ultimate

pack

Рекомендуем

30

Repack

ВАЖНО

ВАЖНО

Ghostwire

RePack

jed

RePack

nioh2

RePack

RDR2

RePack

NEED FOR SPEED™ PAYBACK

RePack

скачать торрент

Кинопоиск HD

Острые козырьки 6 сезон

6 сезон

FAR CRY 6

RePack

скачать торрент

Лицензия

скачать торрент

MVO

1

1 сезон

скачать торрент

1 сезон

скачать торрент

Лицензия

  

Хэйвен / Haven / Сезон: 5 / Серии 1-3 из 26 (Шон Пиллер / Shawn Piller, Ли Роуз / Lee Rose, Т.У. Пикок / T.W. Peacocke) [2014, Канада, США, ужасы, фантастика, фэнтези, WEB-DLRip-AVC, MVO] [BaibaKo]

Хэйвен через торрент pb.wtf

Размер: 1.72 GB | Добавлен: 8 лет назад | Торрент скачан:20 раз
Смотреть онлайн Хэйвен | Скачать   

13-09-2014 03:07 Хэйвен Скачать торрент  

Тайны Хэйвена / Haven
«It takes a village to hide a secret»


  • Год выпуска: 2014
  • Страна: Канада, США
  • Жанр: ужасы, фантастика, фэнтези, триллер, драма, криминал, детектив
  • Продолжительность: 00:42:19(Серия)
  • Перевод: Профессиональный многоголосый закадровый [BaibaKo]

  • Режиссер: Шон Пиллер / Shawn Piller, Ли Роуз / Lee Rose, Т.У. Пикок / T.W. Peacocke
  • В ролях:

    Эмили Роуз (Audrey Parker), Лукас Брайант (Nathan Wuornos), Эрик Бальфур (Duke Crocker), Ричард Донат (Vince Teagues), Джон Дансуорт (Dave Teagues), Адам Коуплэнд (Dwight Hendrickson), Гленн Лефчак (Stan the Cop), Николас Кэмпбелл (Chief of Police Wuornos), Кейт Келтон (Jordan McKee), Эмма Лахана (Jennifer Mason), Бри Уильямсон (Claire Callahan), Кристофер Шор (Dr. Lucassi)

  • Описание:
    В маленький город Хейвен приезжает агент ФБР Одри Паркер, чтобы расследовать смерть бывшего преступника. Из-за своего природного любопытства она попала в эпицентр этого необычного анклава, который, оказывается, издавна служил пристанищем для людей со сверхспособностями. Среди местных жителей города полицейский Натан Вурно, который стал напарником Одри, и загадочный и обаятельный мастер на все руки Дюк Крокер.
  • Рейтинг:



  • Качество: WEB-DLRip-AVC
  • Формат: MP4
  • Видео кодек: AVC
  • Аудио кодек: AAC LC
  • Видео: 720x400 (16:9), 1536 kbps, 23,976 fps, 0,222 bpp
  • Аудио №1: русский AAC LC / 2.0 / 48 kHz / 192 kbps
  • Аудио №2: английский AAC LC / 2.0 / 48 kHz / 192 kbps
  • Релиз от: GEKADOL
    Не нашли то, что искали? Для вас "Стол заказов" "Жмём сюда!"

    Код:

    Внимание! Раздача ведётся путём добавления новых серий; при каждом добавлении создаётся новый торрент. Чтобы начать докачку новой серии, пользователям необходимо сделать следующее:
    (1) остановить скачивание,
    (2) удалить старый торрент у себя из клиента (старые серии удалять не надо),
    (3) скачать новый торрент и запустить его у себя в клиенте вместо старого, при этом указать клиенту путь в старую папку куда и должно происходить скачивание новых серий.
    Ваш клиент при этом должен произвести хеширование (проверку) старой папки (если не производит сам - помогите ему сделать это), и будет докачивать только те серии которых у вас ещё нет. Старые серии при этом не удаляются, а продолжают раздаваться!
    Eсли вы уже удалили старые серии, то предотвратить повторную закачку старых серий можно, отжав галочку в соответсвующих местах при запуске нового торрента. По возможности, желательно не удалять старые серии как можно дольше чтобы релизёр не столько продолжал раздавать старые серии, а смог сконцентрироваться на новых.


    Код:

    General
    Complete name                            : I:\Хэйвен(5 Сезон)\Haven.s05e01.WEB-DLRip.x264.Rus.Eng.BaibaKo.tv.mp4
    Format                                   : MPEG-4
    Format profile                           : Base Media
    Codec ID                                 : isom
    File size                                : 581 MiB
    Duration                                 : 42mn 19s
    Overall bit rate mode                    : Variable
    Overall bit rate                         : 1 919 Kbps
    Encoded date                             : UTC 2014-09-12 23:02:30
    Tagged date                              : UTC 2014-09-12 23:02:30

    Video
    ID                                       : 1
    Format                                   : AVC
    Format/Info                              : Advanced Video Codec
    Format profile                           : [email protected]
    Format settings, CABAC                   : No
    Format settings, ReFrames                : 3 frames
    Codec ID                                 : avc1
    Codec ID/Info                            : Advanced Video Coding
    Duration                                 : 42mn 19s
    Bit rate                                 : 1 536 Kbps
    Maximum bit rate                         : 9 432 Kbps
    Width                                    : 720 pixels
    Height                                   : 400 pixels
    Display aspect ratio                     : 16:9
    Frame rate mode                          : Variable
    Frame rate                               : 23.976 fps
    Minimum frame rate                       : 23.974 fps
    Maximum frame rate                       : 23.981 fps
    Color space                              : YUV
    Chroma subsampling                       : 4:2:0
    Bit depth                                : 8 bits
    Scan type                                : Progressive
    Bits/(Pixel*Frame)                       : 0.222
    Stream size                              : 465 MiB (80%)
    Writing library                          : x264 core 130 r2273 b3065e6
    Encoding settings                        : cabac=0 / ref=3 / deblock=1:0:0 / analyse=0x1:0x111 / me=hex / subme=7 / psy=1 / psy_rd=1.00:0.00 / mixed_ref=1 / me_range=16 / chroma_me=1 / trellis=1 / 8x8dct=0 / cqm=0 / deadzone=21,11 / fast_pskip=1 / chroma_qp_offset=-2 / threads=12 / lookahead_threads=2 / sliced_threads=0 / nr=0 / decimate=1 / interlaced=0 / bluray_compat=0 / constrained_intra=0 / bframes=0 / weightp=0 / keyint=240 / keyint_min=24 / scenecut=40 / intra_refresh=0 / rc_lookahead=40 / rc=2pass / mbtree=1 / bitrate=1536 / ratetol=1.0 / qcomp=0.60 / qpmin=0 / qpmax=69 / qpstep=4 / cplxblur=20.0 / qblur=0.5 / ip_ratio=1.40 / aq=1:1.00
    Encoded date                             : UTC 2014-09-12 20:46:59
    Tagged date                              : UTC 2014-09-12 23:02:41
    Color primaries                          : BT.709-5, BT.1361, IEC 61966-2-4, SMPTE RP177
    Transfer characteristics                 : BT.709-5, BT.1361
    Matrix coefficients                      : BT.709-5, BT.1361, IEC 61966-2-4 709, SMPTE RP177

    Audio #1
    ID                                       : 2
    Format                                   : AAC
    Format/Info                              : Advanced Audio Codec
    Format profile                           : LC
    Codec ID                                 : 67
    Duration                                 : 42mn 19s
    Bit rate mode                            : Variable
    Bit rate                                 : 192 Kbps
    Maximum bit rate                         : 196 Kbps
    Channel(s)                               : 2 channels
    Channel positions                        : Front: L R
    Sampling rate                            : 48.0 KHz
    Compression mode                         : Lossy
    Stream size                              : 57.3 MiB (10%)
    Language                                 : Russian
    Encoded date                             : UTC 2014-09-12 23:02:35
    Tagged date                              : UTC 2014-09-12 23:02:41

    Audio #2
    ID                                       : 3
    Format                                   : AAC
    Format/Info                              : Advanced Audio Codec
    Format profile                           : LC
    Codec ID                                 : 67
    Duration                                 : 42mn 19s
    Bit rate mode                            : Variable
    Bit rate                                 : 192 Kbps
    Maximum bit rate                         : 195 Kbps
    Channel(s)                               : 2 channels
    Channel positions                        : Front: L R
    Sampling rate                            : 48.0 KHz
    Compression mode                         : Lossy
    Stream size                              : 57.3 MiB (10%)
    Language                                 : English
    Encoded date                             : UTC 2014-09-12 23:02:38
    Tagged date                              : UTC 2014-09-12 23:02:41


    Скриншоты:
    скриншот   скриншот   скриншот   скриншот   скриншот  

    Раздача ведётся путём добавления новых серий. Добавлена 1-3 серия (02.10.2014).Просьба перекачать торрент файл.




  • Скачать Хэйвен через торрент http://i64.fastpic.ru/big/2014/0913/67/4afb232d8953a444bd2a093622dc5767.jpg Скачать, смотреть онлайн Хэйвен бесплантно в хорошем качестве Описание: В маленький город Хейвен приезжает агент ФБР Одри Паркер, чтобы расследовать смерть бывшего преступника. Из-за своего природного ... 10 10 6
    Info! Золотая раздача, скачанное не засчитывается.
    Торрент: Зарегистрирован [2014-10-02 00:37] · скачан: 20 раз
    Статус: √ проверено
    Размер: 1.72 GB
    Как cкачать? Как скачать Хэйвен через торрент | UTorrent




    Последний раз редактировалось: GEKADOL (2014-10-02 00:37), всего редактировалось 3 раз(а)

    28-11-2019 20:33  

    Отключить вcю реклaмy на сайте

    13-09-2014 06:25 Хэйвен Скачать торрент  

    только вчера вспоминал подожду озвучку от кубиков



    02-10-2014 04:44 Хэйвен Скачать торрент  

    спасибо отличный сериальчик, очень благодарен что его выложил ))))



    02-10-2014 07:21 Хэйвен Скачать торрент  

    Все самые необычные происшествия мистического характера происходят в одном маленьком городке. Второму главному герою каждое новое дело кажется очень необычным, и он с таким не сталкивался (прожив там больше 30 лет, и сам имеющий некие "странные" силы). Как он вообще раскрывал преступления до этого? И почему до этого не было таких случаев фантастических? Агент ФБР не может распознать человека по навороченным программам коими они нас всех в страхе держут. При этом, Агент ФБР просто взяла и перевелась в местную полицию. То есть государство раскидывается сверхценными кадрамы? В начале каждой серии сразу можно понять, как выглядит и с кем связан преступник. И вы говорите, интересный сериал? Туфта полная. Некоторые серии просто отвращение вызывают своим глупым смыслом, если он есть вообще. Прошу пардона за негатив, просто удивляет, как он живет вот уже 5 сезон.



      Дорогой пользователь! Огромная просьба, поблагодарите релизера, оцените раздачу и оставьте свои комментарий, если Вы скачали Хэйвен через торрент бесплатно!!
      Комментировать посты могут только пользователи прошедшие не сложную регистрацию
      Показать сообщения:    


      Хэйвен через торрент
      Скачать бесплатно Хэйвен
      Хэйвен скачать торрент
      Хэйвен смотреть онлайн
      Cкачать фильм Хэйвен бесплатно
      Хэйвен скачать торрент в хорошем качестве
      Хэйвен смотреть онлайн бесплатно в хорошем качестве
      Вы не можете начинать темы
      Вы не можете отвечать на сообщения
      Вы не можете редактировать свои сообщения
      Вы не можете удалять свои сообщения
      Вы не можете голосовать в опросах
      Вы не можете прикреплять файлы к сообщениям
      Вы можете скачивать файлы