2 сезон

iTunes

MVO

1

2 сезон

iTunes

iTunes

1 сезон

RePack

30

Новинка

ВАЖНО

ИГРА 18+

pack

RePack

MK11
pack

Легкие деньги

RePack

jed

RePack

fifa19

RePack

RDR2

RePack

NEED FOR SPEED™ PAYBACK

4 сезон

9 сезон

Бесстыжие 9 сезон

Все сериалы

все сериалы на PB.wtf

RePack

FAR CRY 5

Anonymous, доброй ночи, мы не успеваем собрать деньги на оплату серверов за декабрь и январь, помогите нам пожалуйста в это трудное время. В качестве благодарности мы отключим Вам всю рекламу на сайте (укажите свой ник в строку Ваше имя)!

×
  
Magnet ссылка

Малефисента / Maleficent (Роберт Стромберг) [2014, фэнтези, семейный, BDRip 1080p 3D] DUB Лицензия / Вертикальная анаморфная стереопара pb.wtf

Малефисента через торрент pb.wtf

Размер: 12.7 GB | Добавлен: 6 лет 4 мес. назад | Торрент скачан:2047 раз
Скачать  

13-09-2014 10:51 Малефисента Скачать торрент  

Малефисента / Maleficent
«Не верьте сказкам»

Год выпуска: 2014
Страна: США, Великобритания
Жанр:фэнтези, семейный
Продолжительность:01:37:28
Перевод:Дубляж - [Лицензия]
Субтитры: русские, английские,
Режиссер:Роберт Стромберг

  • В ролях:

    Анджелина Джоли (Maleficent), Эль Фаннинг (Aurora), Шарлто Копли (Stefan), Лесли Мэнвилл (Flittle), Имелда Стонтон (Knotgrass), Джуно Темпл (Thistletwit), Сэм Райли (Diaval), Брентон Туэйтс (Prince Phillip), Кеннет Крэнэм (King Henry), Сара Флинд (Princess Leila's Handmaiden), Ханна Нью (Queen Leah), Изобель Моллой (Young Maleficent)

  • Описание:
    Юная волшебница Малефисента вела уединенную жизнь в зачарованном лесу, окруженная сказочными существами, но однажды все изменилось... В её мир вторглись люди, которые принесли с собой разрушение и хаос, и Малефисенте пришлось встать на защиту своих подданных, призвав на помощь могущественные тёмные силы. В пылу борьбы Малефисента наложила страшное заклятие на новорожденную дочь короля, прекрасную Аврору. Но, наблюдая за тем, как растет маленькая принцесса, Малефисента начинает сомневаться в правильности своего поступка - ведь, возможно, именно Аврора может вдохнуть новую жизнь в волшебное лесное царство.

  • Мировая премьера:28 мая 2014

    Качество: BDRip 1080p
    Формат:MKV
    Видео кодек: AVC
    Аудио кодек:AC3, DTS
    Видео: AVC, 1920x1080 (16:9), 16800 kbps, 23,976 fps, 0,338 bpp
    Аудио №1: русский / AC3 / 5.1 / 48 kHz / 640 kbps / 16 bit ||
    Аудио №2: английский / DTS / 5.1 / 48 kHz / 1510 kbps / 24 bit
    Навигация по главам: есть


    Код:

    General
    Unique ID                                : 242211794911546122004013049088888322948 (0xB6384B7CA0450867AB5BC1A5F3A4BB84)
    Complete name                            : D:\Торенты\Maleficent.2014.3D.Half-OU.x264.mkv
    Format                                   : Matroska
    Format version                           : Version 4 / Version 2
    File size                                : 12.7 GiB
    Duration                                 : 1h 37mn
    Overall bit rate                         : 18.7 Mbps
    Encoded date                             : UTC 2014-09-13 06:47:44
    Writing application                      : mkvmerge v6.1.0 ('Old Devil') built on Mar  4 2013 09:10:42
    Writing library                          : libebml v1.3.0 + libmatroska v1.4.0

    Video
    ID                                       : 1
    Format                                   : AVC
    Format/Info                              : Advanced Video Codec
    Format profile                           : High@L4.1
    Format settings, CABAC                   : Yes
    Format settings, ReFrames                : 2 frames
    Codec ID                                 : V_MPEG4/ISO/AVC
    Duration                                 : 1h 37mn
    Bit rate                                 : 16.8 Mbps
    Width                                    : 1 920 pixels
    Height                                   : 1 080 pixels
    Display aspect ratio                     : 16:9
    Frame rate                               : 23.976 fps
    Color space                              : YUV
    Chroma subsampling                       : 4:2:0
    Bit depth                                : 8 bits
    Scan type                                : Progressive
    Bits/(Pixel*Frame)                       : 0.338
    Stream size                              : 11.0 GiB (86%)
    Writing library                          : x264 core 142
    Encoding settings                        : cabac=1 / ref=1 / deblock=1:-1:-1 / analyse=0x3:0 / me=hex / subme=7/ psy=0 / mixed_ref=0 / me_range=16 / chroma_me=1 / trellis=0 / 8x8dct=1 / cqm=0 / deadzone=21,11 / fast_pskip=1 / chroma_qp_offset=0 / threads=8 / lookahead_threads=2 / sliced_threads=0 / nr=0 / decimate=1 / interlaced=0 / bluray_compat=0 / constrained_intra=0 / bframes=3 / b_pyramid=0 / b_adapt=1 / b_bias=0 / direct=1 / weightb=1 / open_gop=0 / weightp=0 / keyint=24 / keyint_min=13 / scenecut=40 / intra_refresh=0 / rc=abr / mbtree=0 / bitrate=16800 / ratetol=1.0 / qcomp=0.60 / qpmin=0 / qpmax=69 / qpstep=4 / ip_ratio=1.40 / pb_ratio=1.30 / aq=1:1.00
    Default                                  : Yes
    Forced                                   : No
    Color primaries                          : BT.709-5, BT.1361, IEC 61966-2-4, SMPTE RP177
    Transfer characteristics                 : BT.709-5, BT.1361
    Matrix coefficients                      : BT.709-5, BT.1361, IEC 61966-2-4 709, SMPTE RP177

    Audio #1
    ID                                       : 2
    Format                                   : AC-3
    Format/Info                              : Audio Coding 3
    Mode extension                           : CM (complete main)
    Codec ID                                 : A_AC3
    Duration                                 : 1h 37mn
    Bit rate mode                            : Constant
    Bit rate                                 : 640 Kbps
    Channel(s)                               : 6 channels
    Channel positions                        : Front: L C R, Side: L R, LFE
    Sampling rate                            : 48.0 KHz
    Bit depth                                : 16 bits
    Compression mode                         : Lossy
    Stream size                              : 446 MiB (3%)
    Title                                    : Дубляж, Blu-ray CEE
    Language                                 : Russian
    Default                                  : Yes
    Forced                                   : No

    Audio #2
    ID                                       : 3
    Format                                   : DTS
    Format/Info                              : Digital Theater Systems
    Codec ID                                 : A_DTS
    Duration                                 : 1h 37mn
    Bit rate mode                            : Constant
    Bit rate                                 : 1 510 Kbps
    Channel(s)                               : 6 channels
    Channel positions                        : Front: L C R, Side: L R, LFE
    Sampling rate                            : 48.0 KHz
    Bit depth                                : 24 bits
    Compression mode                         : Lossy
    Stream size                              : 1.03 GiB (8%)
    Language                                 : English
    Default                                  : No
    Forced                                   : No

    Text #1
    ID                                       : 4
    Format                                   : PGS
    Muxing mode                              : zlib
    Codec ID                                 : S_HDMV/PGS
    Codec ID/Info                            : The same subtitle format used on BDs/HD-DVDs
    Language                                 : Russian
    Default                                  : No
    Forced                                   : No

    Text #2
    ID                                       : 5
    Format                                   : PGS
    Muxing mode                              : zlib
    Codec ID                                 : S_HDMV/PGS
    Codec ID/Info                            : The same subtitle format used on BDs/HD-DVDs
    Language                                 : English
    Default                                  : No
    Forced                                   : No

    Menu
    00:00:00.000                             : en:(01)00:00:00:000
    00:03:00.597                             : en:(02)00:03:00:597
    00:08:10.948                             : en:(03)00:08:10:948
    00:14:00.756                             : en:(04)00:14:00:756
    00:19:10.607                             : en:(05)00:19:10:607
    00:25:59.057                             : en:(06)00:25:59:057
    00:33:09.737                             : en:(07)00:33:09:737
    00:38:30.808                             : en:(08)00:38:30:808
    00:43:21.140                             : en:(09)00:43:21:140
    00:46:56.104                             : en:(10)00:46:56:104
    00:51:11.943                             : en:(11)00:51:11:943
    00:54:18.797                             : en:(12)00:54:18:797
    00:58:37.722                             : en:(13)00:58:37:722
    01:01:58.047                             : en:(14)01:01:58:047
    01:05:09.989                             : en:(15)01:05:09:989
    01:09:56.775                             : en:(16)01:09:56:775
    01:15:40.619                             : en:(17)01:15:40:619
    01:17:43.659                             : en:(18)01:17:43:659
    01:25:44.931                             : en:(19)01:25:44:931
    01:28:38.646                             : en:(20)01:28:38:646
    01:37:27.842                             : en:(21)01:37:27:842

    Скриншоты:

    Срочно! Нужна помощь!
    Поблагодарить релизера!
    pb.wtf



  • Скачать Малефисента через торрент http://i64.fastpic.ru/big/2014/0913/2b/83dea41fcdb960b4fe52897216ca682b.png Скачать фильм Малефисента через торрент бесплантно в хорошем качестве Описание:Юная волшебница Малефисента вела уединенную жизнь в зачарованном лесу, окруженная сказочными существами, но однажды все ... 9.4 10 32
    Info! Золотая раздача, скачанное не засчитывается.
    Торрент: Зарегистрирован [2014-09-13 10:51] · скачан: 2 047 раз
    Статус: √ проверено
    Размер: 12.7 GB
    Как cкачать? Как скачать Малефисента через торрент | UTorrent

    28-11-2019 20:33  

    Отключить всю рекламу на сайте

    14-09-2014 13:22 Малефисента Скачать торрент  

    А откуда дорожка (в медиаинфо Дубляж, Blu-ray CEE)? Вроде бы только такое есть Blu-ray 3D EUR в сетиpb.wtf



    14-09-2014 22:42 Малефисента Скачать торрент  

    GALANT, Дорожка взята с блюрей диска.pb.wtf



    10-09-2018 20:42 Малефисента Скачать торрент  

    встаньте на раздачуpb.wtf



      Дорогой пользователь! Огромная просьба, поблагодарите релизера, оцените раздачу и оставьте свои комментарий, если Вы скачали Малефисента через торрент бесплатно! Внесите свою лепту в развитие PiratBit!
      Комментировать посты могут только пользователи прошедшие не сложную регистрацию
      Показать сообщения:    

      Малефисента через торрент
      Скачать бесплатно Малефисента
      Малефисента скачать торрент
      Малефисента смотреть онлайн
      Cкачать фильм Малефисента бесплатно
      Малефисента скачать торрент в хорошем качестве
      Малефисента смотреть онлайн бесплатно в хорошем качестве


      Вы не можете начинать темы
      Вы не можете отвечать на сообщения
      Вы не можете редактировать свои сообщения
      Вы не можете удалять свои сообщения
      Вы не можете голосовать в опросах
      Вы не можете прикреплять файлы к сообщениям
      Вы можете скачивать файлы