Ссылка на приватное зеркало нашего сайта всего за 1$. Внимание количество ограничено!!!

2 сезон

iTunes

1 сезон

1

iTunes

iTunes

iTunes

1 сезон

RePack

30

ИГРА 18+

pack

ВАЖНО

!!Акция!!

Alien_RageХит недели

RePack

MK11
pack

Забери бонус

RePack

jed

!!Акция!!

Alien_Rage

RePack

fifa19

RePack

Assassins Creed: Odyssey

RePack

NEED FOR SPEED™ PAYBACK

4 сезон

9 сезон

Бесстыжие 9 сезон

Все сериалы

все сериалы на PB.wtf

RePack

FAR CRY 5
  

Зной / Swelter (Кит Пармер / Keith Parmer) 2013, США, боевик, триллер, драма, BDRip, Профессиональный многоголосый - TV 1000] pb.wtf

Зной через торрент pb.wtf

Размер: 4.5 GB | Добавлен: 6 лет 1 мес. назад | Торрент скачан:84 раза
Скачать  

13-09-2014 23:04 Зной Скачать торрент  

Зной / Swelter

Год выпуска: 2014
Страна: США
Жанр: боевик, триллер, драма
Продолжительность: 01:36:01
Перевод: Профессиональный многоголосый [TV 1000]
Субтитры: Французские(forced)
Режиссер: Кит Пармер / Keith Parmer
В ролях:


Ленни Джеймс (Bishop), Грант Боулер (Cole), Каталина Сандино Морено (Carmen), Альфред Молина (Doc), Джош Хендерсон (Boyd), Жан-Клод Ван Дамм (Stillman), Минди Робинсон (Party Host), Фрея Тингли (London), Кортни Хоуп (Halle), Трейси Уолтер (Old man johnson), Брэд Картер (Mechanic), Эри Вервин (Reverend Joshua Stone)

Описание:
История о четырех сбежавших заключенных, которые прибывают в пыльный, маленький городок Калифорнии, где стоит невыносимая жара. Беглецы ищут пятого сбежавшего, который скрылся с $10 миллионами наличными.

Рейтинг:
Бюджет:$8 000 000
MPAA: R - Лицам до 17 лет обязательно присутствие взрослого
Качество: BDRip720
Формат: MKV
Видео кодек:AVC
Аудио кодек:AC3, DTS
Видео: AVC, 1280x536 (2.40:1), 5006 kbps, 25 fps, 0,292 bpp
Аудио №1: русский / AC3 / 2.0 / 48 kHz / 192 kbps / 16 bit
Аудио №2: английский / DTS / 5.1 / 48 kHz / 1510 kbps / 24 bit


General
Unique ID : 218798894710537569955083017989106125127 (0xA49B2262488BDFBC8A3959A2C34F4947)
Complete name : D:\Users\_KaisiK_\Bitcomet\КИНО\Znoj.2014.P.BDRip.720p.mkv
Format : Matroska
Format version : Version 2
File size : 4.50 GiB
Duration : 1h 36mn
Overall bit rate : 6 708 Kbps
Encoded date : UTC 2014-09-10 02:23:11
Writing application : mkvmerge v4.0.0 ('The Stars were mine') сборка от Jun 6 2010 16:18:42
Writing library : libebml v1.0.0 + libmatroska v1.0.0

Video
ID : 1
Format : AVC
Format/Info : Advanced Video Codec
Format profile : High@L4.1
Format settings, CABAC : Yes
Format settings, ReFrames : 5 frames
Codec ID : V_MPEG4/ISO/AVC
Duration : 1h 36mn
Bit rate : 5 006 Kbps
Width : 1 280 pixels
Height : 536 pixels
Display aspect ratio : 2.40:1
Frame rate : 25.000 fps
Color space : YUV
Chroma subsampling : 4:2:0
Bit depth : 8 bits
Scan type : Progressive
Bits/(Pixel*Frame) : 0.292
Stream size : 3.27 GiB (73%)
Writing library : x264 core 142 r2431 ac76440
Encoding settings : cabac=1 / ref=5 / deblock=1:0:0 / analyse=0x3:0x113 / me=umh / subme=8 / psy=1 / psy_rd=1.00:0.00 / mixed_ref=1 / me_range=16 / chroma_me=1 / trellis=1 / 8x8dct=1 / cqm=0 / deadzone=21,11 / fast_pskip=1 / chroma_qp_offset=-2 / threads=12 / lookahead_threads=2 / sliced_threads=0 / nr=0 / decimate=1 / interlaced=0 / bluray_compat=0 / constrained_intra=0 / bframes=3 / b_pyramid=2 / b_adapt=2 / b_bias=0 / direct=3 / weightb=1 / open_gop=0 / weightp=2 / keyint=250 / keyint_min=25 / scenecut=40 / intra_refresh=0 / rc_lookahead=50 / rc=2pass / mbtree=1 / bitrate=5006 / ratetol=1.0 / qcomp=0.60 / qpmin=0 / qpmax=69 / qpstep=4 / cplxblur=20.0 / qblur=0.5 / ip_ratio=1.40 / aq=1:1.00
Language : English
Default : No
Forced : No

Audio #1
ID : 2
Format : AC-3
Format/Info : Audio Coding 3
Mode extension : CM (complete main)
Codec ID : A_AC3
Duration : 1h 36mn
Bit rate mode : Constant
Bit rate : 192 Kbps
Channel(s) : 2 channels
Channel positions : Front: L R
Sampling rate : 48.0 KHz
Bit depth : 16 bits
Compression mode : Lossy
Stream size : 132 MiB (3%)
Language : Russian
Default : Yes
Forced : Yes

Audio #2
ID : 3
Format : DTS
Format/Info : Digital Theater Systems
Codec ID : A_DTS
Duration : 1h 36mn
Bit rate mode : Constant
Bit rate : 1 510 Kbps
Channel(s) : 6 channels
Channel positions : Front: L C R, Side: L R, LFE
Sampling rate : 48.0 KHz
Bit depth : 24 bits
Compression mode : Lossy
Delay relative to video : 11ms
Stream size : 1.01 GiB (23%)
Language : English
Default : No
Forced : No

Text
ID : 4
Format : UTF-8
Codec ID : S_TEXT/UTF8
Codec ID/Info : UTF-8 Plain Text
Title : Forced
Language : French
Default : No
Forced : No

Menu
00:00:00.000 : en:00:00:00.000
00:09:22.320 : en:00:09:22.320
00:13:39.840 : en:00:13:39.840
00:17:35.040 : en:00:17:35.040
00:24:24.560 : en:00:24:24.560
00:31:01.960 : en:00:31:01.960
00:37:48.000 : en:00:37:48.000
00:42:06.480 : en:00:42:06.480
00:47:44.800 : en:00:47:44.800
00:54:43.000 : en:00:54:43.000
00:59:57.800 : en:00:59:57.800
01:06:19.840 : en:01:06:19.840
01:14:35.560 : en:01:14:35.560
01:21:44.960 : en:01:21:44.960
01:25:09.720 : en:01:25:09.720
01:29:59.680 : en:01:29:59.680

[/code]
pb.wtf



Скачать Зной через торрент http://i1.imageban.ru/out/2014/09/14/49104921f6292d353ad8c706502aaaa7.jpg Скачать фильм Зной через торрент бесплантно в хорошем качестве Описание: История о четырех сбежавших заключенных, которые прибывают в пыльный, маленький городок Калифорнии, где стоит невыносимая жара. ... 9.8 10 4
Info! Золотая раздача, скачанное не засчитывается.
Торрент: Зарегистрирован [2014-09-13 23:04] · скачан: 84 раз
Статус: √ проверено
Размер: 4.5 GB
Как cкачать? Как скачать Зной через торрент | qTorrent

28-11-2019 20:33  

Отключить всю рекламу на сайте

    Дорогой пользователь! Огромная просьба, поблагодарите релизера, оцените раздачу и оставьте свои комментарий, если Вы скачали Зной через торрент бесплатно! Внесите свою лепту в развитие PiratBit!
    Комментировать посты могут только пользователи прошедшие не сложную регистрацию
    Показать сообщения:    

    Зной через торрент
    Скачать бесплатно Зной
    Зной скачать торрент
    Зной смотреть онлайн
    Cкачать фильм Зной бесплатно
    Зной скачать торрент в хорошем качестве
    Зной смотреть онлайн бесплатно в хорошем качестве


    Вы не можете начинать темы
    Вы не можете отвечать на сообщения
    Вы не можете редактировать свои сообщения
    Вы не можете удалять свои сообщения
    Вы не можете голосовать в опросах
    Вы не можете прикреплять файлы к сообщениям
    Вы можете скачивать файлы