Ссылка на приватное зеркало нашего сайта всего за 1$. Внимание количество ограничено!!!

2 сезон

iTunes

1 сезон

1

iTunes

iTunes

iTunes

1 сезон

RePack

30

ИГРА 18+

pack

ВАЖНО

!!Акция!!

Alien_RageХит недели

RePack

MK11
pack

Забери бонус

RePack

jed

!!Акция!!

Alien_Rage

RePack

fifa19

RePack

Assassins Creed: Odyssey

RePack

NEED FOR SPEED™ PAYBACK

4 сезон

9 сезон

Бесстыжие 9 сезон

Все сериалы

все сериалы на PB.wtf

RePack

FAR CRY 5
  

Слепая / Blind (Эскиль Вогт / Eskil Vogt) 2014, Норвегия, драма, DVDRip, Любительский (одноголосый)] pb.wtf

Слепая через торрент pb.wtf

Размер: 1.35 GB | Добавлен: 6 лет 1 мес. назад | Торрент скачан:327 раз
Скачать  

14-09-2014 00:07 Слепая Скачать торрент  

Слепая / Blind

Год выпуска: 2014
Страна: Норвегия
Жанр: драма
Продолжительность: 01:31:59
Перевод: Любительский (одноголосый) [Lord32x]
Субтитры: Отсутствует
Режиссер: Эскиль Вогт / Eskil Vogt
В ролях:


Эллен Доррит Петерсен (Ingrid), Хенрик Рафаелсен (Morten), Вера Виталий (Elin), Marius Kolbenstvedt (Einar), Stella Kvam Young (Kim (girl)), Isak Nikolai Møller (Kim (boy)), Jacob Young (Elin's ex-husband), Nikki Butenschøn (Ove Kenneth), Erle Kyllingmark (Bente), Fredrik Sandahl (Cyclist), Aslag Guttormsgaard (Nice man), Veronica Berntsen (Young saleswoman)

Описание:
После потери зрения Ингрид почти не покидает квартиру. Она еще не забыла облик окружающего мира, но образы, бывшие когда-то столь ясными, теперь заменяются мрачными видениями. Ингрид подозревает, что муж обманывает ее, говоря, что ходит на работу. Остается ли Мортен в квартире? Тихо передвигаясь, он рассматривает ее? Или, прикидываясь, что пишет электронное письмо коллеге, болтает с любовницей?
Старый приятель Мортена по работе Эйнар большой любитель кино и музыки. Но вместо того, чтобы поощрять свою страсть, он бродит по просторам сетевого порно и шпионит за Элин, шведкой, что живет через улицу. После развода она потеряла всякую связь с обществом. Для нее начинаются абсурдные, необъяснимые события, а поговорить ей об этом не с кем, кроме десятилетней дочери.

Рейтинг:

Качество: DVDRip
Формат: AVI
Видео кодек:XviD
Аудио кодек:AC3
Видео: XviD, 720x384 (1.875), 1710 kbps, 25 fps, 0,247 bpp
Аудио: AC3 / 5.1 / 48 kHz / 384 kbps / 16 bit

General
Complete name : D:\Users\_KaisiK_\Bitcomet\КИНО\Blind.2014.DVDRip.1400MB.avi
Format : AVI
Format/Info : Audio Video Interleave
File size : 1.35 GiB
Duration : 1h 31mn
Overall bit rate : 2 104 Kbps
Writing application : VirtualDubMod 1.5.10.3 | www.virtualdub-fr.org || (build 2550/release)
Writing library : VirtualDubMod build 2550/release

Video
ID : 0
Format : MPEG-4 Visual
Format profile : Advanced Simple@L5
Format settings, BVOP : 3
Format settings, QPel : Yes
Format settings, GMC : No warppoints
Format settings, Matrix : Default (H.263)
Codec ID : XVID
Codec ID/Hint : XviD
Duration : 1h 31mn
Bit rate : 1 710 Kbps
Width : 720 pixels
Height : 384 pixels
Display aspect ratio : 1.875
Frame rate : 25.000 fps
Color space : YUV
Chroma subsampling : 4:2:0
Bit depth : 8 bits
Scan type : Progressive
Compression mode : Lossy
Bits/(Pixel*Frame) : 0.247
Stream size : 1.10 GiB (81%)
Writing library : XviD 1.2.1 (UTC 2008-12-04)

Audio
ID : 1
Format : AC-3
Format/Info : Audio Coding 3
Mode extension : CM (complete main)
Codec ID : 2000
Duration : 1h 31mn
Bit rate mode : Constant
Bit rate : 384 Kbps
Channel(s) : 6 channels
Channel positions : Front: L C R, Side: L R, LFE
Sampling rate : 48.0 KHz
Bit depth : 16 bits
Compression mode : Lossy
Stream size : 253 MiB (18%)
Alignment : Split accross interleaves
Interleave, duration : 40 ms (1.00 video frame)
Interleave, preload duration : 500 ms

[/code]
pb.wtf



Скачать Слепая через торрент http://i4.imageban.ru/out/2014/09/14/d10cecdf651c975d0d07e73683d76ad6.jpg Скачать фильм Слепая через торрент бесплантно в хорошем качестве Описание: После потери зрения Ингрид почти не покидает квартиру. Она еще не забыла облик окружающего мира, но образы, бывшие когда-то столь ... 9.8 10 12
Торрент: Зарегистрирован [2014-09-14 00:07] · скачан: 327 раз
Статус: T временная
Размер: 1.35 GB
Как cкачать? Как скачать Слепая через торрент | qTorrent

% Раздел Тема Автор DL S | L
Порно фильмы с русским переводом [ 1.23 GB ] Свидание в Слепую Свингер Клуб / Blind Date Swingers Club [2019 Feature DVDRip ] Pir@tya2010 Скачать
9 | 0
Зарубежные сериалы [ 16.07 GB ] Слепая зона / Слепое пятно / Blindspot / Сезон: 5 / Серии: 1-11 из 11 [2020 WEB-DL 720p] MVO [NewStudio] bober100 Скачать
3 | 0
Зарубежные сериалы [ 16.07 GB ] Слепая зона / Слепое пятно / Blindspot / Сезон: 5 / Серии: 1-11 из 11 [2020 WEB-DL 720p] MVO [AlexFilm] bober100 Скачать
1 | 0
Зарубежные сериалы [ 4.18 GB ] Слепая зона / Слепое пятно / Blindspot / Сезон: 5 / Серии: 1-7 из 13 [2020 WEB-DLRip] MVO [Lostfilm] bober100 Скачать
1 | 0
Зарубежные сериалы [ 16.07 GB ] Слепая зона / Слепое пятно / Blindspot / Сезон: 5 / Серии: 1-11 из 11 [2020 WEB-DL 720p] MVO [Lostfilm] bober100 Скачать
2 | 0
Зарубежные сериалы [ 30.09 GB ] Слепая зона / Слепое пятно / Blindspot / Сезон: 5 / Серии: 1-11 из 11 [2020 WEB-DL 1080p] MVO [Lostfilm] bober100 Скачать
1 | 0
Фильмы (HD 720p, 1080p) (48-60 fps) [ 4.34 GB ] Слепая ярость / Blind Fury [1989 BDRip 720p / 60 FPS ] от R.G. HD-Films slaventi-69 Скачать
3 | 0


Последний раз редактировалось: _KaisiK_ (2014-12-11 11:17), всего редактировалось 1 раз

28-11-2019 20:33  

Отключить всю рекламу на сайте

14-09-2014 11:05 Слепая Скачать торрент  

Сразу видно 37 человек скачали из за скринов и пофиг что это драмма)pb.wtf



22-09-2014 15:43 Слепая Скачать торрент  

Актуален из-за ТВ3 sarcasticpb.wtf



    Дорогой пользователь! Огромная просьба, поблагодарите релизера, оцените раздачу и оставьте свои комментарий, если Вы скачали Слепая через торрент бесплатно! Внесите свою лепту в развитие PiratBit!
    Комментировать посты могут только пользователи прошедшие не сложную регистрацию
    Показать сообщения:    

    Слепая через торрент
    Скачать бесплатно Слепая
    Слепая скачать торрент
    Слепая смотреть онлайн
    Cкачать фильм Слепая бесплатно
    Слепая скачать торрент в хорошем качестве
    Слепая смотреть онлайн бесплатно в хорошем качестве


    Вы не можете начинать темы
    Вы не можете отвечать на сообщения
    Вы не можете редактировать свои сообщения
    Вы не можете удалять свои сообщения
    Вы не можете голосовать в опросах
    Вы не можете прикреплять файлы к сообщениям
    Вы можете скачивать файлы