MEGA SALE -50% FORZA HORIZON 4 ULTIMATE+ВСЕ DLC+ОНЛАЙН всего за 599р. 299 руб. (супер цена). Внимание количество ограничено!!!

iTunes

1+1

iTunes

мы

iTunes

1

iTunes

Чернобыль

iTunes

Ральф против интернета

Лицензия

ПШазам

Лицензия

Игра престолов

Лицензия

30
pack

ВАЖНО

!!Акция!!

Alien_RageХит недели

RePack

Resident Evil 21

ИГРА 18+

pack

RePack

Metro:Exodus

!!Акция!!

Alien_Rage

RePack

fifa19

RePack

Assassins Creed: Odyssey

RePack

NEED FOR SPEED™ PAYBACK

3 сезон

9 сезон

Бесстыжие 9 сезон

Все сериалы

все сериалы на PB.wtf

RePack

FAR CRY 5
Ребята, катастрофически не хватает 7730р. для оплаты серверов за АВГУСТ (всвязи с блокировками трафик упал в 3 раза), 1-2р., выручайте.
  

Любовь нельзя купить / Can't Buy Me Love (Стив Рэш / Steve Rash) 1987, США, драма, мелодрама, комедия, HDTVRip, Профессиональный многоголосый] pb.wtf

Любовь нельзя купить через торрент pb.wtf

Размер: 1.46 GB | Добавлен: 5 лет назад | Торрент скачан:57 раз
Скачать  

14-09-2014 00:28 Любовь нельзя купить Скачать торрент  

Любовь нельзя купить / Can't Buy Me Love«Ronald is making an investment in his senior year. He's hiring the prettiest cheerleader in school to be his girlfriend»
Год выпуска: 1987
Страна: США
Жанр: драма, мелодрама, комедия
Продолжительность: 01:34:16
Перевод: Профессиональный многоголосый
Субтитры: Отсутствует
Режиссер: Стив Рэш / Steve Rash
В ролях:


Патрик Демпси (Ronald Miller), Аманда Петерсон (Cindy Mancini), Кортни Гейнс (Kenneth Wurman), Тина Каспари (Barbara), Сет Грин (Chuckie Miller), Шэрон Фаррелл (Mrs. Mancini), Дарси ДеМосс (Patty), Деннис Дуган (David Miller), Клойс Морроу (Judy Miller), Девин ДеВаскес (Iris), Корт МакКоун (Quint), Эрик Браскоттер (Big John)

Описание:
Мечтая обрести статус «крутого парня», старшеклассник Роннит Миллер, считавшийся полным неудачником, внезапно получает шанс резко повысить свой авторитет.
Узнав, что самая популярная девчонка школы Синди Манчини отчаянно нуждается в деньгах, Ронни предлагает ей тысячу долларов - в обмен на месяц, в течение которого она будет изображать его подружку и научит, как стать первым парнем в классе!
Сделка состоялась, и вот уже рейтинг экс-лузера растет прямо на глазах. Но быстрый успех так кружит Ронни голову, что он даже не замечает, как Синди, которая раньше и имени-то его не знала, начинает и в самом деле в него влюбляться!..

Рейтинг:

MPAA: PG-13 - Детям до 13 лет просмотр не желателен
Качество: HDTVRip
Формат: AVI
Видео кодек:XviD
Аудио кодек:AC3
Видео: XviD, 704x384 (16:9), 1826 kbps, 23,976 fps, 0,282 bpp
Аудио №1: AC3 / 2.0 / 48 kHz / 192 kbps / 16 bit
Аудио №2: AC3 / 2.0 / 48 kHz / 192 kbps / 16 bit


General
Complete name : D:\Users\_KaisiK_\Bitcomet\КИНО\Can't.Buy.Me.Love.1987.Dual.HDTVRip.avi
Format : AVI
Format/Info : Audio Video Interleave
File size : 1.46 GiB
Duration : 1h 34mn
Overall bit rate : 2 221 Kbps
Movie name : Любовь нельзя купить / Can't Buy Me Love (1987) HDTVRip
Genre : Драма, мелодрама, комедия
Recorded date : 10.09.2014
Writing application : VirtualDubMod 1.5.10.3 | www.virtualdub-fr.org || (build 2550/release)
Writing library : VirtualDubMod build 2550/release
Copyright : rip by ivandubskoj

Video
ID : 0
Format : MPEG-4 Visual
Format profile : Advanced Simple@L5
Format settings, BVOP : 1
Format settings, QPel : No
Format settings, GMC : No warppoints
Format settings, Matrix : Custom
Codec ID : XVID
Codec ID/Hint : XviD
Duration : 1h 34mn
Bit rate : 1 827 Kbps
Width : 704 pixels
Height : 384 pixels
Display aspect ratio : 16:9
Frame rate : 23.976 fps
Color space : YUV
Chroma subsampling : 4:2:0
Bit depth : 8 bits
Scan type : Progressive
Compression mode : Lossy
Bits/(Pixel*Frame) : 0.282
Stream size : 1.20 GiB (82%)
Writing library : XviD 73

Audio #1
ID : 1
Format : AC-3
Format/Info : Audio Coding 3
Mode extension : CM (complete main)
Codec ID : 2000
Duration : 1h 34mn
Bit rate mode : Constant
Bit rate : 192 Kbps
Channel(s) : 2 channels
Channel positions : Front: L R
Sampling rate : 48.0 KHz
Bit depth : 16 bits
Compression mode : Lossy
Stream size : 129 MiB (9%)
Alignment : Split accross interleaves
Interleave, duration : 64 ms (1.53 video frames)
Interleave, preload duration : 500 ms
Title : Russian [MVO]

Audio #2
ID : 2
Format : AC-3
Format/Info : Audio Coding 3
Mode extension : CM (complete main)
Codec ID : 2000
Duration : 1h 34mn
Bit rate mode : Constant
Bit rate : 192 Kbps
Channel(s) : 2 channels
Channel positions : Front: L R
Sampling rate : 48.0 KHz
Bit depth : 16 bits
Compression mode : Lossy
Stream size : 129 MiB (9%)
Alignment : Split accross interleaves
Interleave, duration : 64 ms (1.53 video frames)
Interleave, preload duration : 500 ms
Title : English [Original]

[/code]
pb.wtf



Скачать Любовь нельзя купить через торрент http://i6.imageban.ru/out/2014/09/14/9e30a5ab4c848c3ce184e5f945784461.jpg Скачать фильм Любовь нельзя купить через торрент бесплантно в хорошем качестве Описание: Мечтая обрести статус «крутого парня», старшеклассник Роннит Миллер, считавшийся полным неудачником, внезапно получает шанс резко ... 10 10 3
Торрент: Зарегистрирован [2014-09-14 00:28] · скачан: 57 раз
Статус: √ проверено
Размер: 1.46 GB
Как cкачать? Как скачать Любовь нельзя купить через торрент | qTorrent


>> Регистрируемся здесь <<






Отзывы и комментарии о схеме читаем и пишем здесь: ---> Отзывы и комментарии о схеме

Новые благодарочки в телеграм довольных пользователей:
скриншот   скриншот   скриншот   скриншот   скриншот
    Дорогой пользователь! Огромная просьба, поблагодарите релизера, оцените раздачу и оставьте свои комментарий, если Вы скачали Любовь нельзя купить через торрент бесплатно! Внесите свою лепту в развитие PiratBit!
    Комментировать посты могут только пользователи прошедшие не сложную регистрацию
    Показать сообщения:    

    Любовь нельзя купить через торрент
    Скачать бесплатно Любовь нельзя купить
    Любовь нельзя купить скачать торрент
    Любовь нельзя купить смотреть онлайн
    Cкачать фильм Любовь нельзя купить бесплатно
    Любовь нельзя купить скачать торрент в хорошем качестве
    Любовь нельзя купить смотреть онлайн бесплатно в хорошем качестве


    Вы не можете начинать темы
    Вы не можете отвечать на сообщения
    Вы не можете редактировать свои сообщения
    Вы не можете удалять свои сообщения
    Вы не можете голосовать в опросах
    Вы не можете прикреплять файлы к сообщениям
    Вы можете скачивать файлы