Ссылка на приватное зеркало нашего сайта всего за 1$. Внимание количество ограничено!!!

2 сезон

iTunes

1 сезон

1

iTunes

iTunes

iTunes

1 сезон

RePack

30

ИГРА 18+

pack

ВАЖНО

!!Акция!!

Alien_RageХит недели

RePack

MK11
pack

Забери бонус

RePack

jed

!!Акция!!

Alien_Rage

RePack

fifa19

RePack

Assassins Creed: Odyssey

RePack

NEED FOR SPEED™ PAYBACK

4 сезон

9 сезон

Бесстыжие 9 сезон

Все сериалы

все сериалы на PB.wtf

RePack

FAR CRY 5
  

Люсия де Берк / Lucia de B (Паула ван дер Уст / Paula van der Oest) [2014, Нидерланды, Швеция, триллер, драма, DVDRip, Любительский (одноголосый)(Lord32x) pb.wtf

Люсия де Берк через торрент pb.wtf

Размер: 1.16 GB | Добавлен: 6 лет 1 мес. назад | Торрент скачан:109 раз
Скачать  

14-09-2014 04:54 Люсия де Берк Скачать торрент  

Люсия де Берк / Lucia de B
«Schuldig tot je onschuld is bewezen»


  • Год выпуска: 2014
  • Страна: Нидерланды, Швеция
  • Жанр: триллер, драма
  • Продолжительность: 01:32:50
  • Перевод: Любительский (одноголосый)(Lord32x)

  • Режиссер: Паула ван дер Уст / Paula van der Oest
  • В ролях:

    Барри Атсма (Jaap van Hoensbroeck), Аманда Оомс (Jenny), Марван Кензари (Rechercheur Ron Leeflang), Федя ван Хюэт (Quirijn Herzberg), Салли Хармсен (Judith Jansen), Аннет Мальэрб (Ernestine Johansson), Исис Каболе (Fabiënne), Марсель Мустерс (Rechercheur Henk Bos), Рональд Топ (Rechter-Commissaris Krol), Ариан Шлутер (Lucia de Berk), Belinda van der Stoep (Surinaamse Medegevangene), Рейну Буссемакер (Voorzitter Dresden)

  • Описание:
    Фильм расскажет об одном из самых громких и противоречивых судебных дел в истории Нидерландов. Медсестра Люсия де Берк обвиняется в убийстве новорожденных и стариков. Людская молва окрестила ее "Ангелом Смерти", пресса именует самой хладнокровной серийной убийцей в истории страны. Кто же такая на самом деле Люсия де Берк?
  • Рейтинг:



  • Качество: DVDRip
  • Формат: :AVI
  • Видео кодек: XviD
  • Аудио кодек: AC3
  • Видео: 720x272 (2.647), 1324 kbps, 25 fps, 0,270 bpp
  • Аудио: Nepali / 5.1 / 48 kHz / 448 kbps / 16 bit
  • Релиз от: GEKADOL
    Не нашли то, что искали? Для вас "Стол заказов" "Жмём сюда!"

    Код:

    General
    Complete name                            : I:\Lucia.de.B.2014.DVDRip.1200MB.avi
    Format                                   : AVI
    Format/Info                              : Audio Video Interleave
    File size                                : 1.16 GiB
    Duration                                 : 1h 32mn
    Overall bit rate                         : 1 782 Kbps
    Writing application                      : VirtualDubMod 1.5.10.3 | www.virtualdub-fr.org || (build 2550/release)
    Writing library                          : VirtualDubMod build 2550/release

    Video
    ID                                       : 0
    Format                                   : MPEG-4 Visual
    Format profile                           : Advanced Simple@L5
    Format settings, BVOP                    : No
    Format settings, QPel                    : No
    Format settings, GMC                     : No warppoints
    Format settings, Matrix                  : Custom
    Codec ID                                 : XVID
    Codec ID/Hint                            : XviD
    Duration                                 : 1h 32mn
    Bit rate                                 : 1 324 Kbps
    Width                                    : 720 pixels
    Height                                   : 272 pixels
    Display aspect ratio                     : 2.647
    Frame rate                               : 25.000 fps
    Color space                              : YUV
    Chroma subsampling                       : 4:2:0
    Bit depth                                : 8 bits
    Scan type                                : Progressive
    Compression mode                         : Lossy
    Bits/(Pixel*Frame)                       : 0.270
    Stream size                              : 879 MiB (74%)
    Writing library                          : XviD 62

    Audio
    ID                                       : 1
    Format                                   : AC-3
    Format/Info                              : Audio Coding 3
    Mode extension                           : CM (complete main)
    Codec ID                                 : 2000
    Duration                                 : 1h 32mn
    Bit rate mode                            : Constant
    Bit rate                                 : 448 Kbps
    Channel(s)                               : 6 channels
    Channel positions                        : Front: L C R, Side: L R, LFE
    Sampling rate                            : 48.0 KHz
    Bit depth                                : 16 bits
    Compression mode                         : Lossy
    Stream size                              : 297 MiB (25%)
    Alignment                                : Split accross interleaves
    Interleave, duration                     : 40 ms (1.00 video frame)
    Interleave, preload duration             : 500 ms
    Language                                 : Nepali


    Скриншоты:
    pb.wtf



  • Скачать Люсия де Берк через торрент http://i64.fastpic.ru/big/2014/0914/47/f4246d97371830c808a7d33998440a47.jpeg Скачать фильм Люсия де Берк через торрент бесплантно в хорошем качестве Описание: Фильм расскажет об одном из самых громких и противоречивых судебных дел в истории Нидерландов. Медсестра Люсия де Берк обвиняется ... 10 10 3
    Торрент: Зарегистрирован [2014-09-14 04:54] · скачан: 109 раз
    Статус: T временная
    Размер: 1.16 GB
    Как cкачать? Как скачать Люсия де Берк через торрент | qTorrent

    28-11-2019 20:33  

    Отключить всю рекламу на сайте

    14-09-2014 05:34 Люсия де Берк Скачать торрент  

    Ни любви-ни тоски-ни жалости.Вот кто такие все эти современные "юропейцы"!pb.wtf



    14-09-2014 18:30 Люсия де Берк Скачать торрент  

    Stopper68 писал(а):

    Ни любви-ни тоски-ни жалости.Вот кто такие все эти современные "юропейцы"!

    сейчас везде так ....pb.wtf



      Дорогой пользователь! Огромная просьба, поблагодарите релизера, оцените раздачу и оставьте свои комментарий, если Вы скачали Люсия де Берк через торрент бесплатно! Внесите свою лепту в развитие PiratBit!
      Комментировать посты могут только пользователи прошедшие не сложную регистрацию
      Показать сообщения:    

      Люсия де Берк через торрент
      Скачать бесплатно Люсия де Берк
      Люсия де Берк скачать торрент
      Люсия де Берк смотреть онлайн
      Cкачать фильм Люсия де Берк бесплатно
      Люсия де Берк скачать торрент в хорошем качестве
      Люсия де Берк смотреть онлайн бесплатно в хорошем качестве


      Вы не можете начинать темы
      Вы не можете отвечать на сообщения
      Вы не можете редактировать свои сообщения
      Вы не можете удалять свои сообщения
      Вы не можете голосовать в опросах
      Вы не можете прикреплять файлы к сообщениям
      Вы можете скачивать файлы