новый адрес
Ссылка на приватное зеркало всего за 1$. Внимание количество ограничено!!!

iTunes

1+1

iTunes

мы

WEB-DL

1

iTunes

Чернобыль

iTunes

Ральф против интернета

Лицензия

ПШазам

Лицензия

Оно 2

Лицензия

30
pack

Вам бонус

ВАЖНО

!!Акция!!

Alien_RageХит недели

RePack

Resident Evil 21

ИГРА 18+

pack

RePack

jed

!!Акция!!

Alien_Rage

RePack

fifa19

RePack

Assassins Creed: Odyssey

RePack

NEED FOR SPEED™ PAYBACK

3 сезон

9 сезон

Бесстыжие 9 сезон

Все сериалы

все сериалы на PB.wtf

RePack

FAR CRY 5
Ребята, катастрофически не хватает 1900р. для оплаты серверов за Октябрь (всвязи с блокировками трафик упал в 3 раза), 1-2р., выручайте.
  

Отторжение (Владимир Лаерт) [2009 г., фантасмагория, триллер, драма, TVRip] pb.wtf

Отторжение через торрент pb.wtf

Размер: 1.46 GB | Добавлен: 5 лет 2 мес. назад | Торрент скачан:108 раз
Скачать  

14-09-2014 06:02 Отторжение Скачать торрент  

Отторжение

Год выпуска: 2009
Страна: Украина
Жанр: фантасмагория, триллер, драма
Продолжительность: 01:27:01
Перевод: Не требуется
  • Режиссер: Владимир Лерт
  • Продюсер: Андрей Савенко, Евгений Духович, Мария Говоруха
  • Сценарий: Владимир Лерт, Андрей Саломатов
  • Премьера (мир): 27 сентября 2009
  • Оф. сайт <--

В ролях: Сергей Бабкин, Богдан Ступка, Олесь Кацион, Виктория Билан, Кирилл Кашликов, Владимир Левицкий, Евгения Удовенко, Анатолий Борисенко, Агния Дитковските, Александр Ганноченко, Александр Баширов, Александр Печерица, Алексей Мороз, Александр Светляков, Максим Максимюк, Виктор Черняков, Инна Капинос, Артем Менделенко, Роман Негриенко, Роман Агиенко, Клиф

Описание: Это история любви при необычных обстоятельствах. По сюжету картины, люди в спешке покидают город, небо над которым стало нефритово-зеленого цвета. Всё вокруг покрывается стремительно разрастающейся зеленой плесенью, поглощающей всё живое. По улице идут колонны танков и бронетехники. Некоторые пешеходы, бесцельно шатающиеся по улицам, ведут себя неадекватно: выкрикивают бессвязные слова, машут руками и механически совершают нецелесообразные действия. Главному герою картины предстоит выяснить, что происходит с городом — вторжение инопланетного разума, или последствия неудачного эксперимента военных?..
  • Качество: TVRip
  • Формат: AVI
  • Видео кодек: DivX
  • Аудио кодек: MP3
  • Видео: MPEG4, DivX 5, 672x272 (2.471), 25.000 fps, 2 255 Kbps (0.493 bit/pixel)
  • Аудио: MP3, 48.0 KHz, 2 ch, 128 Kbps, CBR

Скриншоты
скриншот   скриншот   скриншот   скриншот  







Код:

General
Complete name                            : F:\PC Share\Отторжение_1.45.avi
Format                                   : AVI
Format/Info                              : Audio Video Interleave
File size                                : 1.46 GiB
Duration                                 : 1h 27mn
Overall bit rate                         : 2 393 Kbps
Writing application                      : VirtualDubModRus 1.5.10.2 (build 2540/release)
Writing library                          : VirtualDubMod build 2540/release

Video
ID                                       : 0
Format                                   : MPEG-4 Visual
Format settings, BVOP                    : Yes
Format settings, QPel                    : No
Format settings, GMC                     : No warppoints
Format settings, Matrix                  : Custom
Codec ID                                 : DX50
Codec ID/Hint                            : DivX 5
Duration                                 : 1h 27mn
Bit rate                                 : 2 255 Kbps
Width                                    : 672 pixels
Height                                   : 272 pixels
Display aspect ratio                     : 2.471
Frame rate                               : 25.000 fps
Color space                              : YUV
Chroma subsampling                       : 4:2:0
Bit depth                                : 8 bits
Scan type                                : Progressive
Compression mode                         : Lossy
Bits/(Pixel*Frame)                       : 0.493
Stream size                              : 1.38 GiB (94%)
Writing library                          : DivX 6.8.5 (UTC 2009-08-20)

Audio
ID                                       : 1
Format                                   : MPEG Audio
Format version                           : Version 1
Format profile                           : Layer 3
Mode                                     : Joint stereo
Mode extension                           : MS Stereo
Codec ID                                 : 55
Codec ID/Hint                            : MP3
Duration                                 : 1h 27mn
Bit rate mode                            : Constant
Bit rate                                 : 128 Kbps
Channel(s)                               : 2 channels
Sampling rate                            : 48.0 KHz
Compression mode                         : Lossy
Stream size                              : 80.0 MiB (5%)
Alignment                                : Split accross interleaves
Interleave, duration                     : 40 ms (1.00 video frame)
Interleave, preload duration             : 500 ms

pb.wtf



Скачать Отторжение через торрент http://i66.fastpic.ru/big/2014/0914/f4/f674b1c3cf6282b25744dd44f8f8a9f4.png Скачать фильм Отторжение через торрент бесплантно в хорошем качестве Описание: Это история любви при необычных обстоятельствах. По сюжету картины, люди в спешке покидают город, небо над которым стало ... 8.8 10 8
Info! Золотая раздача, скачанное не засчитывается.
Торрент: Зарегистрирован [2014-09-14 06:02] · скачан: 108 раз
Статус: √ проверено
Размер: 1.46 GB
Как cкачать? Как скачать Отторжение через торрент | qTorrent

28-11-2019 20:33  

Отключить всю рекламу на сайте

14-09-2014 07:06 Отторжение Скачать торрент  

Прям пророческий фильм...pb.wtf



08-10-2014 17:18 Отторжение Скачать торрент  

Stopper68 писал(а):

Прям пророческий фильм...

К сожалению, да...pb.wtf



13-09-2018 10:25 Отторжение Скачать торрент  

Очень слабая постановка уровня провинциального подросткового киноклуба. Пророческий фильм? Наверное смотрели его с другой планеты. Ступка даже не напрягается играть, просто говорит текст, он так видит. Остальные тоже не стараются или просто не умеют играть. *Зачэм говорить, ты просто туда- сюда ходы.* Бессмысленные или банальные диалоги и очень много тинейджерских претензий на глубокий смысл. Качество видео очень среднее. Спасибо за раздачу.pb.wtf



    Дорогой пользователь! Огромная просьба, поблагодарите релизера, оцените раздачу и оставьте свои комментарий, если Вы скачали Отторжение через торрент бесплатно! Внесите свою лепту в развитие PiratBit!
    Комментировать посты могут только пользователи прошедшие не сложную регистрацию
    Показать сообщения:    

    Отторжение через торрент
    Скачать бесплатно Отторжение
    Отторжение скачать торрент
    Отторжение смотреть онлайн
    Cкачать фильм Отторжение бесплатно
    Отторжение скачать торрент в хорошем качестве
    Отторжение смотреть онлайн бесплатно в хорошем качестве


    Вы не можете начинать темы
    Вы не можете отвечать на сообщения
    Вы не можете редактировать свои сообщения
    Вы не можете удалять свои сообщения
    Вы не можете голосовать в опросах
    Вы не можете прикреплять файлы к сообщениям
    Вы можете скачивать файлы