Ссылка на приватное зеркало всего за 1$. Внимание количество ограничено!!!

iTunes

1+1

iTunes

мы

WEB-DL

1

iTunes

Чернобыль

iTunes

Ральф против интернета

Лицензия

ПШазам

Лицензия

Оно 2

Лицензия

30
pack

Вам бонус

ВАЖНО

!!Акция!!

Alien_RageХит недели

RePack

Resident Evil 21

ИГРА 18+

pack

RePack

jed

!!Акция!!

Alien_Rage

RePack

fifa19

RePack

Assassins Creed: Odyssey

RePack

NEED FOR SPEED™ PAYBACK

3 сезон

9 сезон

Бесстыжие 9 сезон

Все сериалы

все сериалы на PB.wtf

RePack

FAR CRY 5
Ребята, катастрофически не хватает 1900р. для оплаты серверов за Октябрь (всвязи с блокировками трафик упал в 3 раза), 1-2р., выручайте.
  

Как влюбленный / Like Someone in Love (Аббас Киаростами) [2012, драма,арт-хаус, DVDRip, Любительский (одноголосый)[D.I.M] pb.wtf

Как влюбленный через торрент pb.wtf

Размер: 1.37 GB | Добавлен: 5 лет 2 мес. назад | Торрент скачан:17 раз
Скачать  

14-09-2014 06:24 Как влюбленный Скачать торрент  

Как влюбленный / Like Someone in Love


Год выпуска: 2012
Страна: Франция, Япония
Жанр:драма,арт-хаус
Продолжительность:01:49:41
Перевод:Любительский (одноголосый)[D.I.M]
Режиссер:Аббас Киаростами

  • В ролях:

    Тадаси Окуно (Takashi Watanabe), Рин Таканаси (Akiko), Рё Касэ (Noriaki), Денден (Hiroshi), Рейко Мори (Nagisa), Канеко Кубота (Akiko's grandmother), Рёта Наканиси (Student, в титрах не указан)

  • Описание:
    Токио. Он - пожилой мужчина, она - молодая женщина. Она ничего не знает о нем, ему кажется, что он знает о ней все. Он открывает перед ней двери своего жилища, она отдает ему свое тело. Однако обстоятельства их встречи не играют никакой роли в тех отношениях, которые устанавливаются между ними всего за одни сутки...

  • Мировая премьера:11 апреля 2012

    Качество: DVDRip
    Формат:AVI
    Видео кодек: XviD
    Аудио кодек:MP3
    Видео: XviD, 720x432 (1.667), 1648 kbps, 23,976 fps, 0,221 bpp
    Аудио: русский / MP3 / 2.0 / 48 kHz / 128 kbps / ||


    Код:

    General
    Complete name                            : D:\Торенты\Kak.vljublennyj.2012.L1.DVDRip.avi
    Format                                   : AVI
    Format/Info                              : Audio Video Interleave
    File size                                : 1.37 GiB
    Duration                                 : 1h 49mn
    Overall bit rate                         : 1 786 Kbps
    Writing application                      : VirtualDubModRus 1.5.10.2 (build 2542/release)
    Writing library                          : VirtualDubMod build 2542/release

    Video
    ID                                       : 0
    Format                                   : MPEG-4 Visual
    Format profile                           : Advanced Simple@L5
    Format settings, BVOP                    : No
    Format settings, QPel                    : No
    Format settings, GMC                     : No warppoints
    Format settings, Matrix                  : Custom
    Codec ID                                 : XVID
    Codec ID/Hint                            : XviD
    Duration                                 : 1h 49mn
    Bit rate                                 : 1 649 Kbps
    Width                                    : 720 pixels
    Height                                   : 432 pixels
    Display aspect ratio                     : 1.667
    Frame rate                               : 23.976 fps
    Color space                              : YUV
    Chroma subsampling                       : 4:2:0
    Bit depth                                : 8 bits
    Scan type                                : Progressive
    Compression mode                         : Lossy
    Bits/(Pixel*Frame)                       : 0.221
    Stream size                              : 1.26 GiB (92%)
    Writing library                          : XviD 63

    Audio
    ID                                       : 1
    Format                                   : MPEG Audio
    Format version                           : Version 1
    Format profile                           : Layer 3
    Mode                                     : Joint stereo
    Mode extension                           : MS Stereo
    Codec ID                                 : 55
    Codec ID/Hint                            : MP3
    Duration                                 : 1h 49mn
    Bit rate mode                            : Constant
    Bit rate                                 : 128 Kbps
    Channel(s)                               : 2 channels
    Sampling rate                            : 48.0 KHz
    Compression mode                         : Lossy
    Stream size                              : 100 MiB (7%)
    Alignment                                : Aligned on interleaves
    Interleave, duration                     : 42 ms (1.00 video frame)
    Interleave, preload duration             : 504 ms
    Writing library                          : LAME3.98.2
    Language                                 : Russian

    Скриншоты:

    Срочно! Нужна помощь!
    Поблагодарить релизера!
    pb.wtf



  • Скачать Как влюбленный через торрент http://pic.kartinco.top/images/6/stazu.jpg Скачать фильм Как влюбленный через торрент бесплантно в хорошем качестве Описание:Токио. Он - пожилой мужчина, она - молодая женщина. Она ничего не знает о нем, ему кажется, что он знает о ней все. Он открывает ... 10 10 1
    Торрент: Зарегистрирован [2014-09-14 06:24] · скачан: 17 раз
    Статус: √ проверено
    Размер: 1.37 GB
    Как cкачать? Как скачать Как влюбленный через торрент | qTorrent

    28-11-2019 20:33  

    Отключить всю рекламу на сайте

      Дорогой пользователь! Огромная просьба, поблагодарите релизера, оцените раздачу и оставьте свои комментарий, если Вы скачали Как влюбленный через торрент бесплатно! Внесите свою лепту в развитие PiratBit!
      Комментировать посты могут только пользователи прошедшие не сложную регистрацию
      Показать сообщения:    

      Как влюбленный через торрент
      Скачать бесплатно Как влюбленный
      Как влюбленный скачать торрент
      Как влюбленный смотреть онлайн
      Cкачать фильм Как влюбленный бесплатно
      Как влюбленный скачать торрент в хорошем качестве
      Как влюбленный смотреть онлайн бесплатно в хорошем качестве


      Вы не можете начинать темы
      Вы не можете отвечать на сообщения
      Вы не можете редактировать свои сообщения
      Вы не можете удалять свои сообщения
      Вы не можете голосовать в опросах
      Вы не можете прикреплять файлы к сообщениям
      Вы можете скачивать файлы