>

7.4

iTunes

7.4

2 сезон

9.4

1 сезон

1

7.4

2 сезон

7.2

iTunes

6.0

MVO

13

6.1

iTunes

8.3

Пиратка

30

ULTIMATE

pack

9.9

Лицензия

ВАЖНО

ИГРА 18+

pack

7.3

RePack

MK11

7.7

RePack

jed

7.8

RePack

fifa19

8.5

RePack

RDR2

RePack

NEED FOR SPEED™ PAYBACK

1 сезон

9 сезон

Бесстыжие 9 сезон

Все сериалы

все сериалы на PB.wtf

RePack

FAR CRY 5

Anonymous, добрый вечер, мы катастрофически не успеваем собрать деньги на оплату серверов, помогите нам пожалуйста 5,10,15р., для нас важна любая помощь . В качестве благодарности мы отключим Вам всю рекламу на сайте (укажите свой ник в строку Ваше имя)!

×
  
Magnet ссылка

Хеймел / Хемель / Гемель / Небо / Небеса / Hemel (Саша Полак / Sacha Polak) [2012, Нидерланды, женский портрет, нелюбовный романс, DVDRip] original (dut,eng) + sub (rus) pb.wtf

Хеймел через торрент pb.wtf

Размер: 1.2 GB | Добавлен: 7 лет 4 мес. назад | Торрент скачан:41 раз
Смотреть онлайн Хеймел | Скачать    Ребята, помогите собрать деньги на оплату серверов!!!

14-09-2014 06:30 Хеймел Скачать торрент  

Хеймел / Хемель / Гемель / Небо / Небеса / Hemel


Год выпуска: 2012
Страна: Нидерланды, Испания
Жанр:драма,женский портрет, нелюбовный романс
Продолжительность:01:19:46
Перевод:Субтитры (русские) (Kasablanka)
Режиссер:Саша Полак

  • В ролях:

    Ханна Хекстра (Hemel), Ганс Дагелет (Gijs), Рифка Лодейзен (Sophie), Марк Ритман (Douwe), Ева Дёйвестейн (Emma), Барбара Сарафьян (Brechtje), Вард Вемхофф (Joris), Али Бен Хорстинг (Jimmy), Абдулла эль Бауди (Scooter guy), Элске Роттевел (Annabelle), Мартен Хейманс (Teun), Ферри Ассельбергс (Party Guest)

  • Описание:
    Кажется, что в случайных связях с незнакомцами, Хеймел пытается отыскать грань, за которой обычный секс сливается с любовью, но это грань для нее так же неуловима как и осознание собственных чувств. И лишь к своему отцу Хеймел испытывает искреннюю привязанность, и даже эта связь грозит разорваться с появлением его новой постоянной подруги Софи.

  • Мировая премьера:29 января 2012

    Качество: DVDRip
    Формат:AVI
    Видео кодек: XviD
    Аудио кодек:AC3
    Видео: XviD, 720x320 (2.25:1), 1758 kbps, 25 fps, 0,305 bpp
    Аудио: AC3 / 5.1 / 48 kHz / 384 kbps / 16 bit


    Код:

    General
    Complete name                            : D:\Торенты\Hemel.2012.[DVDRip.AC3.XviD].rus.sub\Hemel.2012.[DVDRip.AC3.XviD].rus.sub.avi
    Format                                   : AVI
    Format/Info                              : Audio Video Interleave
    File size                                : 1.20 GiB
    Duration                                 : 1h 19mn
    Overall bit rate                         : 2 152 Kbps
    Writing application                      : VirtualDubMod 1.5.10.2 (build 2540/release)
    Writing library                          : VirtualDubMod build 2540/release

    Video
    ID                                       : 0
    Format                                   : MPEG-4 Visual
    Format profile                           : Advanced Simple@L5
    Format settings, BVOP                    : 1
    Format settings, QPel                    : No
    Format settings, GMC                     : No warppoints
    Format settings, Matrix                  : Default (H.263)
    Codec ID                                 : XVID
    Codec ID/Hint                            : XviD
    Duration                                 : 1h 19mn
    Bit rate                                 : 1 758 Kbps
    Width                                    : 720 pixels
    Height                                   : 320 pixels
    Display aspect ratio                     : 2.25:1
    Frame rate                               : 25.000 fps
    Color space                              : YUV
    Chroma subsampling                       : 4:2:0
    Bit depth                                : 8 bits
    Scan type                                : Progressive
    Compression mode                         : Lossy
    Bits/(Pixel*Frame)                       : 0.305
    Stream size                              : 1 003 MiB (82%)
    Writing library                          : XviD 1.2.1 (UTC 2008-12-04)

    Audio
    ID                                       : 1
    Format                                   : AC-3
    Format/Info                              : Audio Coding 3
    Mode extension                           : CM (complete main)
    Codec ID                                 : 2000
    Duration                                 : 1h 19mn
    Bit rate mode                            : Constant
    Bit rate                                 : 384 Kbps
    Channel(s)                               : 6 channels
    Channel positions                        : Front: L C R, Side: L R, LFE
    Sampling rate                            : 48.0 KHz
    Bit depth                                : 16 bits
    Compression mode                         : Lossy
    Stream size                              : 219 MiB (18%)
    Alignment                                : Aligned on interleaves
    Interleave, duration                     : 40 ms (1.00 video frame)
    Interleave, preload duration             : 512 ms

    Скриншоты:

    Срочно! Нужна помощь!
    Поблагодарить релизера!
    pb.wtf



  • Скачать Хеймел через торрент https://pic1.kartinco.top/images/61/stazu.jpg Скачать, смотреть онлайн Хеймел бесплантно в хорошем качестве Описание:Кажется, что в случайных связях с незнакомцами, Хеймел пытается отыскать грань, за которой обычный секс сливается с любовью, но ... 5.5 10 2
    Торрент: Зарегистрирован [2014-09-14 06:30] · скачан: 41 раз
    Статус: √ проверено
    Размер: 1.2 GB
    Как cкачать? Как скачать Хеймел через торрент | UTorrent

    28-11-2019 20:33  

    Отключить всю рекламу на сайте

      Дорогой пользователь! Огромная просьба, поблагодарите релизера, оцените раздачу и оставьте свои комментарий, если Вы скачали Хеймел через торрент бесплатно!
      Комментировать посты могут только пользователи прошедшие не сложную регистрацию
      Показать сообщения:    

      Хеймел через торрент
      Скачать бесплатно Хеймел
      Хеймел скачать торрент
      Хеймел смотреть онлайн
      Cкачать фильм Хеймел бесплатно
      Хеймел скачать торрент в хорошем качестве
      Хеймел смотреть онлайн бесплатно в хорошем качестве


      Вы не можете начинать темы
      Вы не можете отвечать на сообщения
      Вы не можете редактировать свои сообщения
      Вы не можете удалять свои сообщения
      Вы не можете голосовать в опросах
      Вы не можете прикреплять файлы к сообщениям
      Вы можете скачивать файлы