Всегда рабочее зеркало просто перед .vidak.icu напиши любое слово или цифру, Пример http://r6j.vidak.icu

>

7.4

iTunes

7.4

2 сезон

9.4

1 сезон

1

7.4

2 сезон

7.2

iTunes

6.0

MVO

13

6.1

iTunes

8.3

Пиратка

30

ULTIMATE

pack

9.9

Лицензия

ВАЖНО

ИГРА 18+

pack

7.3

RePack

MK11

7.7

RePack

jed

7.8

RePack

fifa19

8.5

RePack

RDR2

RePack

NEED FOR SPEED™ PAYBACK

1 сезон

9 сезон

Бесстыжие 9 сезон

Все сериалы

все сериалы на PB.wtf

RePack

FAR CRY 5

Anonymous, доброе утро, мы катастрофически не успеваем собрать деньги на оплату серверов, помогите нам пожалуйста 5,10,15р., для нас важна любая помощь . В качестве благодарности мы отключим Вам всю рекламу на сайте (укажите свой ник в строку Ваше имя)!

×
  
Magnet ссылка

Фауст / Faust (Александр Сокуров) [2011, фэнтези, драма, BDRip, Авторский (одноголосый)|А.Сокуров pb.wtf

Фауст через торрент pb.wtf

Размер: 2.18 GB | Добавлен: 7 лет 4 мес. назад | Торрент скачан:71 раз
Смотреть онлайн Фауст | Скачать    Ребята, помогите собрать деньги на оплату серверов!!!

14-09-2014 06:36 Фауст Скачать торрент  

Фауст / Faust


Год выпуска: 2011
Страна: Россия, Германия, США, Франция, Япония, Великобритания, Италия
Жанр:фэнтези, драма
Продолжительность:02:13:39
Перевод:Авторский (одноголосый)|А.Сокуров|
Субтитры: Русские, английские |внешние, .srt|
Режиссер:Александр Сокуров

  • В ролях:

    Йоханес Цайлер (Фауст), Антон Адасинский (ростовщик-Мефистофель), Ханна Шигулла (жена ростовщика), Георг Фридрих (Вагнер), Изольда Дихаук (Маргарита), Флориан Брюкнер (Валентин), Максим Мехмет (друг Валентина), Антуан Моно мл. (монах), Ева-Мария Курц (Идуберга), Стефан Вебер (Мефистофель, озвучка)

  • Описание:
    Сюжетной основой является первая часть поэтической драмы Гете, где повествование, в основном, строится на любовной линии Фауст-Маргарита.

  • Мировая премьера:8 сентября 2011

    Качество: BDRip
    Формат:AVI
    Видео кодек: XviD
    Аудио кодек:AC3
    Видео: XviD, 720x544 (4:3), 1877 kbps, 25 fps, 0,192 bpp
    Аудио: AC3 / 5.1 / 48 kHz / 448 kbps / 16 bit

    Релиз группы:
    Автор рипа: Beesmark

    Код:

    General
    Complete name                            : D:\Торенты\Faust.2011.Rus.BDRip.XviD.AC3.-HELLYWOOD\Faust.2011.Rus.BDRip.XviD.AC3.-HELLYWOOD.avi
    Format                                   : AVI
    Format/Info                              : Audio Video Interleave
    Format profile                           : OpenDML
    File size                                : 2.18 GiB
    Duration                                 : 2h 13mn
    Overall bit rate                         : 2 338 Kbps
    Movie name                               : Faust.2011.Rus.BDRip.XviD.AC3.-HELLYWOOD
    Director                                 : Beesmark
    Writing application                      : VirtualDubMod 1.5.10.2 (build 2540/release)
    Copyright                                : http://forum.hellywood.ru/

    Video
    ID                                       : 0
    Format                                   : MPEG-4 Visual
    Format profile                           : Advanced Simple@L5
    Format settings, BVOP                    : 2
    Format settings, QPel                    : No
    Format settings, GMC                     : No warppoints
    Format settings, Matrix                  : Custom
    Codec ID                                 : XVID
    Codec ID/Hint                            : XviD
    Duration                                 : 2h 13mn
    Bit rate                                 : 1 878 Kbps
    Width                                    : 720 pixels
    Height                                   : 544 pixels
    Display aspect ratio                     : 4:3
    Frame rate                               : 25.000 fps
    Color space                              : YUV
    Chroma subsampling                       : 4:2:0
    Bit depth                                : 8 bits
    Scan type                                : Progressive
    Compression mode                         : Lossy
    Bits/(Pixel*Frame)                       : 0.192
    Stream size                              : 1.75 GiB (80%)
    Writing library                          : XviD 65

    Audio
    ID                                       : 1
    Format                                   : AC-3
    Format/Info                              : Audio Coding 3
    Mode extension                           : CM (complete main)
    Codec ID                                 : 2000
    Duration                                 : 2h 13mn
    Bit rate mode                            : Constant
    Bit rate                                 : 448 Kbps
    Channel(s)                               : 6 channels
    Channel positions                        : Front: L C R, Side: L R, LFE
    Sampling rate                            : 48.0 KHz
    Bit depth                                : 16 bits
    Compression mode                         : Lossy
    Stream size                              : 428 MiB (19%)
    Alignment                                : Split accross interleaves
    Interleave, duration                     : 40 ms (1.00 video frame)
    Interleave, preload duration             : 500 ms

    Скриншоты:

    Срочно! Нужна помощь!
    Поблагодарить релизера!
    pb.wtf



  • Скачать Фауст через торрент https://pic1.kartinco.top/images/61/stazu.jpg Скачать, смотреть онлайн Фауст бесплантно в хорошем качестве Описание:Сюжетной основой является первая часть поэтической драмы Гете, где повествование, в основном, строится на любовной линии ... 9.3 10 3
    Торрент: Зарегистрирован [2014-09-14 06:36] · скачан: 71 раз
    Статус: √ проверено
    Размер: 2.18 GB
    Как cкачать? Как скачать Фауст через торрент | UTorrent

    28-11-2019 20:33  

    Отключить всю рекламу на сайте

      Дорогой пользователь! Огромная просьба, поблагодарите релизера, оцените раздачу и оставьте свои комментарий, если Вы скачали Фауст через торрент бесплатно!
      Комментировать посты могут только пользователи прошедшие не сложную регистрацию
      Показать сообщения:    

      Фауст через торрент
      Скачать бесплатно Фауст
      Фауст скачать торрент
      Фауст смотреть онлайн
      Cкачать фильм Фауст бесплатно
      Фауст скачать торрент в хорошем качестве
      Фауст смотреть онлайн бесплатно в хорошем качестве


      Вы не можете начинать темы
      Вы не можете отвечать на сообщения
      Вы не можете редактировать свои сообщения
      Вы не можете удалять свои сообщения
      Вы не можете голосовать в опросах
      Вы не можете прикреплять файлы к сообщениям
      Вы можете скачивать файлы