новый адрес
Ссылка на приватное зеркало всего за 1$. Внимание количество ограничено!!!

iTunes

1+1

iTunes

мы

iTunes

1

iTunes

Чернобыль

iTunes

Ральф против интернета

Лицензия

ПШазам

Лицензия

Оно 2

Лицензия

30
pack

Вам бонус

ВАЖНО

!!Акция!!

Alien_RageХит недели

RePack

Resident Evil 21

ИГРА 18+

pack

RePack

jed

!!Акция!!

Alien_Rage

RePack

fifa19

RePack

Assassins Creed: Odyssey

RePack

NEED FOR SPEED™ PAYBACK

3 сезон

9 сезон

Бесстыжие 9 сезон

Все сериалы

все сериалы на PB.wtf

RePack

FAR CRY 5
Ребята, катастрофически не хватает 1900р. для оплаты серверов за Октябрь (всвязи с блокировками трафик упал в 3 раза), 1-2р., выручайте.
  

Странный цвет слез твоего тела / L'étrange couleur des larmes de ton corps (Элен Катте, Брюно Форзани) [2013, триллер, детектив, DVDRip, Любительский (двухголосый)[den904, DeadSno] pb.wtf

Странный цвет слез твоего тела через торрент pb.wtf

Размер: 1.55 GB | Добавлен: 5 лет 2 мес. назад | Торрент скачан:154 раза
Скачать  

14-09-2014 06:50 Странный цвет слез твоего тела Скачать торрент  

Странный цвет слез твоего тела / L'étrange couleur des larmes de ton corps


Год выпуска: 2013
Страна: Бельгия, Франция, Люксембург
Жанр:триллер, детектив
Продолжительность:01:37:35
Перевод:Любительский (двухголосый)[den904, DeadSno]
Режиссер:Элен Катте, Брюно Форзани

  • В ролях:

    Клаус Тангэ (Dan Kristensen), Ursula Bedena, Joe Koener, Биргит Йю, Ханс де Мунтер, Анна Д’Аннунцио, Жан-Мишель Вовк, Манон Бюшо, Ромейн Ролл, Lolita Oosterlynck, Дельфин Бюаль, Сэм Ловик

  • Описание:
    Женщина пропадает без вести. Её муж исследует странные обстоятельства этого исчезновения. Она ушла от него? Или умерла? Он решает выяснить это, и с этого момента его жизнь наполняется обилием кошмара и насилия...

  • Мировая премьера:12 августа 2013

    Качество: DVDRip
    Формат:AVI
    Видео кодек: XviD
    Аудио кодек:AC3
    Видео: XviD, 720x304 (2.35:1), 2074 kbps, 25 fps, 0,379 bpp
    Аудио: AC3 / 2.0 / 48 kHz / 192 kbps / 16 bit


    Код:

    General
    Complete name                            : D:\Торенты\Strannyi.cvet.slez.tvoeho.tela.2013.L2.DVDRip.avi
    Format                                   : AVI
    Format/Info                              : Audio Video Interleave
    File size                                : 1.55 GiB
    Duration                                 : 1h 37mn
    Overall bit rate                         : 2 276 Kbps
    Writing application                      : VirtualDubMod 1.5.10.3 | www.virtualdub-fr.org || (build 2550/release)
    Writing library                          : VirtualDubMod build 2550/release

    Video
    ID                                       : 0
    Format                                   : MPEG-4 Visual
    Format profile                           : Advanced Simple@L5
    Format settings, BVOP                    : 1
    Format settings, QPel                    : No
    Format settings, GMC                     : No warppoints
    Format settings, Matrix                  : Custom
    Codec ID                                 : XVID
    Codec ID/Hint                            : XviD
    Duration                                 : 1h 37mn
    Bit rate                                 : 2 074 Kbps
    Width                                    : 720 pixels
    Height                                   : 304 pixels
    Display aspect ratio                     : 2.35:1
    Frame rate                               : 25.000 fps
    Color space                              : YUV
    Chroma subsampling                       : 4:2:0
    Bit depth                                : 8 bits
    Scan type                                : Progressive
    Compression mode                         : Lossy
    Bits/(Pixel*Frame)                       : 0.379
    Stream size                              : 1.41 GiB (91%)
    Writing library                          : XviD 73

    Audio
    ID                                       : 1
    Format                                   : AC-3
    Format/Info                              : Audio Coding 3
    Mode extension                           : CM (complete main)
    Codec ID                                 : 2000
    Duration                                 : 1h 37mn
    Bit rate mode                            : Constant
    Bit rate                                 : 192 Kbps
    Channel(s)                               : 2 channels
    Channel positions                        : Front: L R
    Sampling rate                            : 48.0 KHz
    Bit depth                                : 16 bits
    Compression mode                         : Lossy
    Stream size                              : 134 MiB (8%)
    Alignment                                : Split accross interleaves
    Interleave, duration                     : 40 ms (1.00 video frame)
    Interleave, preload duration             : 500 ms

    Скриншоты:

    Срочно! Нужна помощь!
    Поблагодарить релизера!
    pb.wtf



  • Скачать Странный цвет слез твоего тела через торрент http://pic.kartinco.top/images/6/stazu.jpg Скачать фильм Странный цвет слез твоего тела через торрент бесплантно в хорошем качестве Описание:Женщина пропадает без вести. Её муж исследует странные обстоятельства этого исчезновения. Она ушла от него? Или умерла? Он решает ... 8 10 2
    Торрент: Зарегистрирован [2014-09-14 06:50] · скачан: 154 раз
    Статус: √ проверено
    Размер: 1.55 GB
    Как cкачать? Как скачать Странный цвет слез твоего тела через торрент | qTorrent

    Отключить всю рекламу на сайте
      Дорогой пользователь! Огромная просьба, поблагодарите релизера, оцените раздачу и оставьте свои комментарий, если Вы скачали Странный цвет слез твоего тела через торрент бесплатно! Внесите свою лепту в развитие PiratBit!
      Комментировать посты могут только пользователи прошедшие не сложную регистрацию
      Показать сообщения:    

      Странный цвет слез твоего тела через торрент
      Скачать бесплатно Странный цвет слез твоего тела
      Странный цвет слез твоего тела скачать торрент
      Странный цвет слез твоего тела смотреть онлайн
      Cкачать фильм Странный цвет слез твоего тела бесплатно
      Странный цвет слез твоего тела скачать торрент в хорошем качестве
      Странный цвет слез твоего тела смотреть онлайн бесплатно в хорошем качестве


      Вы не можете начинать темы
      Вы не можете отвечать на сообщения
      Вы не можете редактировать свои сообщения
      Вы не можете удалять свои сообщения
      Вы не можете голосовать в опросах
      Вы не можете прикреплять файлы к сообщениям
      Вы можете скачивать файлы