новый адрес
Ссылка на приватное зеркало всего за 1$. Внимание количество ограничено!!!

iTunes

1+1

iTunes

мы

WEB-DL

1

iTunes

Чернобыль

iTunes

Ральф против интернета

Лицензия

ПШазам

Лицензия

Оно 2

Лицензия

30
pack

Вам бонус

ВАЖНО

!!Акция!!

Alien_RageХит недели

RePack

Resident Evil 21

ИГРА 18+

pack

RePack

jed

!!Акция!!

Alien_Rage

RePack

fifa19

RePack

Assassins Creed: Odyssey

RePack

NEED FOR SPEED™ PAYBACK

3 сезон

9 сезон

Бесстыжие 9 сезон

Все сериалы

все сериалы на PB.wtf

RePack

FAR CRY 5
Ребята, катастрофически не хватает 1900р. для оплаты серверов за Октябрь (всвязи с блокировками трафик упал в 3 раза), 1-2р., выручайте.
  

Мисима: Финальная глава / 11·25 jiketsu no hi: Mishima Yukio to wakamono-tachi (Кодзи Вакамацу) [2012, драма, DVDRip, Профессиональный многоголосый [Лицензия] pb.wtf

Мисима: Финальная глава через торрент pb.wtf

Размер: 1.46 GB | Добавлен: 5 лет 2 мес. назад | Торрент скачан:22 раза
Скачать  

14-09-2014 06:53 Мисима: Финальная глава Скачать торрент  

Мисима: Финальная глава / 11·25 jiketsu no hi: Mishima Yukio to wakamono-tachi
«Никто не умирает напрасно»

Год выпуска: 2012
Страна: Япония
Жанр:драма
Продолжительность:01:55:02
Перевод:Профессиональный многоголосый [Лицензия]
Режиссер:Кодзи Вакамацу

  • В ролях:

    Арата Иура (Yukio Mishima), Синобу Терадзима, Хидео Накаизуми, Шин’носуке Мицусима (Hissho morita), Ханаэ Кан, Сузуносуке, Томори Абе (Zenkyoto student), Синдзи Сузуки, Бансуке Касамацу, Кийохико Шибукава, Кадзуки Цудзимото, Кацуюки Синохара

  • Описание:
    Пристальное исследование последних часов жизни легендарного японского писателя. 25 ноября 1970 года известный писатель и светский персонаж Юкио Мисима явился на базу сухопутных войск в Итигая, где обратился к солдатам с призывом совершить государственный переворот. Будучи проигнорирован слушателями, Мисима покончил с собой, совершив ритуальное самоубийство, известное как сэппуку. Какие обстоятельства привели тонкого эстета и глубокого мыслителя к этому отчаянному самурайскому жесту?

  • Мировая премьера:12 мая 2012

    Качество: DVDRip
    Формат:AVI
    Видео кодек: XviD
    Аудио кодек:AC3
    Видео: XviD, 720x400 (16:9), 1420 kbps, 25 fps, 0,197 bpp
    Аудио: AC3 / 5.1 / 48 kHz / 384 kbps / 16 bit


    Код:

    General
    Complete name                            : D:\Торенты\Misima.Finalnaya.glava.2012.P.DVDRip.avi
    Format                                   : AVI
    Format/Info                              : Audio Video Interleave
    File size                                : 1.46 GiB
    Duration                                 : 1h 55mn
    Overall bit rate                         : 1 814 Kbps
    Writing application                      : VirtualDubModRus 1.5.10.2 (build 2542/release)
    Writing library                          : VirtualDubMod build 2542/release

    Video
    ID                                       : 0
    Format                                   : MPEG-4 Visual
    Format profile                           : Advanced Simple@L5
    Format settings, BVOP                    : 2
    Format settings, QPel                    : No
    Format settings, GMC                     : No warppoints
    Format settings, Matrix                  : Custom
    Codec ID                                 : XVID
    Codec ID/Hint                            : XviD
    Duration                                 : 1h 55mn
    Bit rate                                 : 1 421 Kbps
    Width                                    : 720 pixels
    Height                                   : 400 pixels
    Display aspect ratio                     : 16:9
    Frame rate                               : 25.000 fps
    Color space                              : YUV
    Chroma subsampling                       : 4:2:0
    Bit depth                                : 8 bits
    Scan type                                : Progressive
    Compression mode                         : Lossy
    Bits/(Pixel*Frame)                       : 0.197
    Stream size                              : 1.14 GiB (78%)
    Writing library                          : XviD 1.2.1 (UTC 2008-12-04)

    Audio
    ID                                       : 1
    Format                                   : AC-3
    Format/Info                              : Audio Coding 3
    Mode extension                           : CM (complete main)
    Codec ID                                 : 2000
    Duration                                 : 1h 55mn
    Bit rate mode                            : Constant
    Bit rate                                 : 384 Kbps
    Channel(s)                               : 6 channels
    Channel positions                        : Front: L C R, Side: L R, LFE
    Sampling rate                            : 48.0 KHz
    Bit depth                                : 16 bits
    Compression mode                         : Lossy
    Delay relative to video                  : 1s 500ms
    Stream size                              : 316 MiB (21%)
    Alignment                                : Split accross interleaves
    Interleave, duration                     : 40 ms (1.00 video frame)
    Interleave, preload duration             : 500 ms

    Скриншоты:

    Срочно! Нужна помощь!
    Поблагодарить релизера!
    pb.wtf



  • Скачать Мисима: Финальная глава через торрент http://pic.kartinco.top/images/6/stazu.jpg Скачать фильм Мисима: Финальная глава через торрент бесплантно в хорошем качестве Описание:Пристальное исследование последних часов жизни легендарного японского писателя. 25 ноября 1970 года известный писатель и светский ... 5 10 1
    Торрент: Зарегистрирован [2014-09-14 06:53] · скачан: 22 раз
    Статус: √ проверено
    Размер: 1.46 GB
    Как cкачать? Как скачать Мисима: Финальная глава через торрент | qTorrent

    28-11-2019 20:33  

    Отключить всю рекламу на сайте

      Дорогой пользователь! Огромная просьба, поблагодарите релизера, оцените раздачу и оставьте свои комментарий, если Вы скачали Мисима: Финальная глава через торрент бесплатно! Внесите свою лепту в развитие PiratBit!
      Комментировать посты могут только пользователи прошедшие не сложную регистрацию
      Показать сообщения:    

      Мисима: Финальная глава через торрент
      Скачать бесплатно Мисима: Финальная глава
      Мисима: Финальная глава скачать торрент
      Мисима: Финальная глава смотреть онлайн
      Cкачать фильм Мисима: Финальная глава бесплатно
      Мисима: Финальная глава скачать торрент в хорошем качестве
      Мисима: Финальная глава смотреть онлайн бесплатно в хорошем качестве


      Вы не можете начинать темы
      Вы не можете отвечать на сообщения
      Вы не можете редактировать свои сообщения
      Вы не можете удалять свои сообщения
      Вы не можете голосовать в опросах
      Вы не можете прикреплять файлы к сообщениям
      Вы можете скачивать файлы