Ссылка на приватное зеркало всего за 1$. Внимание количество ограничено!!!

iTunes

1+1

iTunes

мы

WEB-DL

1

iTunes

Чернобыль

iTunes

Ральф против интернета

Лицензия

ПШазам

Лицензия

Оно 2

Лицензия

30
pack

Вам бонус

ВАЖНО

!!Акция!!

Alien_RageХит недели

RePack

Resident Evil 21

ИГРА 18+

pack

RePack

jed

!!Акция!!

Alien_Rage

RePack

fifa19

RePack

Assassins Creed: Odyssey

RePack

NEED FOR SPEED™ PAYBACK

3 сезон

9 сезон

Бесстыжие 9 сезон

Все сериалы

все сериалы на PB.wtf

RePack

FAR CRY 5
Ребята, катастрофически не хватает 1900р. для оплаты серверов за Октябрь (всвязи с блокировками трафик упал в 3 раза), 1-2р., выручайте.
  

Поза ребенка / Pozitia copilului (Кэлин Питер Нецер) [2013, драма, HDTVRip, Любительский (двухголосый)[den904, DeadSno] pb.wtf

Поза ребенка через торрент pb.wtf

Размер: 1.37 GB | Добавлен: 5 лет 3 мес. назад | Торрент скачан:28 раз
Скачать  

14-09-2014 06:57 Поза ребенка Скачать торрент  

Поза ребенка / Pozitia copilului


Год выпуска: 2013
Страна: Румыния
Жанр:драма
Продолжительность:01:47:32
Перевод:Любительский (двухголосый)[den904, DeadSno]
Режиссер:Кэлин Питер Нецер

  • В ролях:

    Луминица Георгиу (Cornelia Keneres), Богдан Думитраке (Barbu), Натаса Рааб (Olga Cerchez), Илинка Гойя (Carmen), Флорин Замфиреску (Domnul Fagarasanu), Влад Иванов (Dinu Laurentiu), Мими Брэнеску (Policeman), Черасела Иосифеску, Адриан Титьени (Child's father), Таня Попа, Ион Гросу, Оксана Моравек

  • Описание:
    Одним холодным вечером в марте Барбу колесит по улицам, сильно превышая скорость, и сбивает ребенка. Мальчик умирает вскоре после аварии. Барбу ожидает лишение свободы на срок от 3-х до 15-ти лет. Но тут его мать, Корнелия, решает вмешаться, чтобы отмазать сынка.

  • Мировая премьера:11 февраля 2013

    Качество: HDTVRip
    Формат:AVI
    Видео кодек: XviD
    Аудио кодек:AC3
    Видео: XviD, 720x304 (2.35:1), 1431 kbps, 25 fps, 0,262 bpp
    Аудио №1: AC3 / 2.0 / 48 kHz / 192 kbps / Russian
    Аудио №2: AC3 / 2.0 / 48 kHz / 192 kbps / Romanian


    Код:

    General
    Complete name                            : D:\Торенты\Childs.Pose.2013.HDTVRip.CINEMANIA.avi
    Format                                   : AVI
    Format/Info                              : Audio Video Interleave
    File size                                : 1.37 GiB
    Duration                                 : 1h 47mn
    Overall bit rate                         : 1 830 Kbps
    Writing application                      : VirtualDubMod 1.5.10.2 (build 2542/release)
    Writing library                          : VirtualDubMod build 2542/release

    Video
    ID                                       : 0
    Format                                   : MPEG-4 Visual
    Format profile                           : Advanced Simple@L5
    Format settings, BVOP                    : 2
    Format settings, QPel                    : No
    Format settings, GMC                     : No warppoints
    Format settings, Matrix                  : Default (MPEG)
    Muxing mode                              : Packed bitstream
    Codec ID                                 : XVID
    Codec ID/Hint                            : XviD
    Duration                                 : 1h 47mn
    Bit rate                                 : 1 432 Kbps
    Width                                    : 720 pixels
    Height                                   : 304 pixels
    Display aspect ratio                     : 2.35:1
    Frame rate                               : 25.000 fps
    Color space                              : YUV
    Chroma subsampling                       : 4:2:0
    Bit depth                                : 8 bits
    Scan type                                : Progressive
    Compression mode                         : Lossy
    Bits/(Pixel*Frame)                       : 0.262
    Stream size                              : 1.08 GiB (78%)
    Writing library                          : XviD 1.2.1 (UTC 2008-12-04)

    Audio #1
    ID                                       : 1
    Format                                   : AC-3
    Format/Info                              : Audio Coding 3
    Mode extension                           : CM (complete main)
    Codec ID                                 : 2000
    Duration                                 : 1h 47mn
    Bit rate mode                            : Constant
    Bit rate                                 : 192 Kbps
    Channel(s)                               : 2 channels
    Channel positions                        : Front: L R
    Sampling rate                            : 48.0 KHz
    Bit depth                                : 16 bits
    Compression mode                         : Lossy
    Stream size                              : 148 MiB (10%)
    Alignment                                : Split accross interleaves
    Interleave, duration                     : 40 ms (1.00 video frame)
    Interleave, preload duration             : 500 ms

    Audio #2
    ID                                       : 2
    Format                                   : AC-3
    Format/Info                              : Audio Coding 3
    Mode extension                           : CM (complete main)
    Codec ID                                 : 2000
    Duration                                 : 1h 47mn
    Bit rate mode                            : Constant
    Bit rate                                 : 192 Kbps
    Channel(s)                               : 2 channels
    Channel positions                        : Front: L R
    Sampling rate                            : 48.0 KHz
    Bit depth                                : 16 bits
    Compression mode                         : Lossy
    Stream size                              : 148 MiB (10%)
    Alignment                                : Split accross interleaves
    Interleave, duration                     : 40 ms (1.00 video frame)
    Interleave, preload duration             : 500 ms

    Скриншоты:

    Срочно! Нужна помощь!
    Поблагодарить релизера!
    pb.wtf



  • Скачать Поза ребенка через торрент http://pic.kartinco.top/images/6/stazu.jpg Скачать фильм Поза ребенка через торрент бесплантно в хорошем качестве Описание:Одним холодным вечером в марте Барбу колесит по улицам, сильно превышая скорость, и сбивает ребенка. Мальчик умирает вскоре после ... 10 10 1
    Торрент: Зарегистрирован [2014-09-14 06:57] · скачан: 28 раз
    Статус: √ проверено
    Размер: 1.37 GB
    Как cкачать? Как скачать Поза ребенка через торрент | qTorrent

    28-11-2019 20:33  

    Отключить всю рекламу на сайте

      Дорогой пользователь! Огромная просьба, поблагодарите релизера, оцените раздачу и оставьте свои комментарий, если Вы скачали Поза ребенка через торрент бесплатно! Внесите свою лепту в развитие PiratBit!
      Комментировать посты могут только пользователи прошедшие не сложную регистрацию
      Показать сообщения:    

      Поза ребенка через торрент
      Скачать бесплатно Поза ребенка
      Поза ребенка скачать торрент
      Поза ребенка смотреть онлайн
      Cкачать фильм Поза ребенка бесплатно
      Поза ребенка скачать торрент в хорошем качестве
      Поза ребенка смотреть онлайн бесплатно в хорошем качестве


      Вы не можете начинать темы
      Вы не можете отвечать на сообщения
      Вы не можете редактировать свои сообщения
      Вы не можете удалять свои сообщения
      Вы не можете голосовать в опросах
      Вы не можете прикреплять файлы к сообщениям
      Вы можете скачивать файлы