новый адрес
Ссылка на приватное зеркало всего за 1$. Внимание количество ограничено!!!

iTunes

1+1

iTunes

мы

WEB-DL

1

iTunes

Чернобыль

iTunes

Ральф против интернета

Лицензия

ПШазам

Лицензия

Оно 2

Лицензия

30
pack

Вам бонус

ВАЖНО

!!Акция!!

Alien_RageХит недели

RePack

Resident Evil 21

ИГРА 18+

pack

RePack

jed

!!Акция!!

Alien_Rage

RePack

fifa19

RePack

Assassins Creed: Odyssey

RePack

NEED FOR SPEED™ PAYBACK

3 сезон

9 сезон

Бесстыжие 9 сезон

Все сериалы

все сериалы на PB.wtf

RePack

FAR CRY 5
Ребята, катастрофически не хватает 1900р. для оплаты серверов за Октябрь (всвязи с блокировками трафик упал в 3 раза), 1-2р., выручайте.
  

Рай: Вера / Paradies: Glaube (Ульрих Зайдль) [2012, драма, DVDRip, Профессиональный многоголосый [Лицензия] pb.wtf

Рай: Вера через торрент pb.wtf

Размер: 1.46 GB | Добавлен: 5 лет 2 мес. назад | Торрент скачан:21 раз
Скачать  

14-09-2014 07:00 Рай: Вера Скачать торрент  

Рай: Вера / Paradies: Glaube


Год выпуска: 2012
Страна: Австрия, Франция, Германия
Жанр:драма
Продолжительность:01:48:52
Перевод:Профессиональный многоголосый [Лицензия]
Режиссер:Ульрих Зайдль

  • В ролях:

    Мария Хофштаттер (Anna Maria), Набил Сале (Nabil), Наталья Баранова (Natalya), Рене Рупник (Herr Rupnik), Даниэль Хёсл (Messdiener), Barbara Lehner (Gebetsschwester), Дитер Мазур, Труде Мазур, Мартина Спитцер (Gebetsgruppenleiterin)

  • Описание:
    Анна-Мария, по профессии рентгенотехник, уверена, что рай - там, где Иисус. Она посвящает весь свой отпуск миссионерской работе, чтобы Австрию можно было вернуть на путь добродетели. Ежедневно она совершает паломничество по Вене,: ходит от дома к дому с полуметровой статуей девы Марии. В один прекрасный день после многих лет отсутствия домой возвращается ее муж, мусульманин из Египта, прикованный к инвалидному креслу.

  • Мировая премьера:30 августа 2012

    Качество: DVDRip
    Формат:AVI
    Видео кодек: XviD
    Аудио кодек:AC3
    Видео: XviD, 720x384 (1.875), 1458 kbps, 25 fps, 0,211 bpp
    Аудио: AC3 / 5.1 / 48 kHz / 448 kbps / 16 bit


    Код:

    General
    Complete name                            : D:\Торенты\Raj.Vera.2012.P.DVDRip.avi
    Format                                   : AVI
    Format/Info                              : Audio Video Interleave
    File size                                : 1.46 GiB
    Duration                                 : 1h 48mn
    Overall bit rate                         : 1 916 Kbps
    Writing application                      : VirtualDubMod 1.5.10.3 | www.virtualdub-fr.org || (build 2550/release)
    Writing library                          : VirtualDubMod build 2550/release

    Video
    ID                                       : 0
    Format                                   : MPEG-4 Visual
    Format profile                           : Advanced Simple@L5
    Format settings, BVOP                    : 1
    Format settings, QPel                    : No
    Format settings, GMC                     : No warppoints
    Format settings, Matrix                  : Custom
    Codec ID                                 : XVID
    Codec ID/Hint                            : XviD
    Duration                                 : 1h 48mn
    Bit rate                                 : 1 458 Kbps
    Width                                    : 720 pixels
    Height                                   : 384 pixels
    Display aspect ratio                     : 1.875
    Frame rate                               : 25.000 fps
    Color space                              : YUV
    Chroma subsampling                       : 4:2:0
    Bit depth                                : 8 bits
    Scan type                                : Progressive
    Compression mode                         : Lossy
    Bits/(Pixel*Frame)                       : 0.211
    Stream size                              : 1.11 GiB (76%)
    Writing library                          : XviD 1.2.1 (UTC 2008-12-04)

    Audio
    ID                                       : 1
    Format                                   : AC-3
    Format/Info                              : Audio Coding 3
    Mode extension                           : CM (complete main)
    Codec ID                                 : 2000
    Duration                                 : 1h 48mn
    Bit rate mode                            : Constant
    Bit rate                                 : 448 Kbps
    Channel(s)                               : 6 channels
    Channel positions                        : Front: L C R, Side: L R, LFE
    Sampling rate                            : 48.0 KHz
    Bit depth                                : 16 bits
    Compression mode                         : Lossy
    Stream size                              : 349 MiB (23%)
    Alignment                                : Split accross interleaves
    Interleave, duration                     : 40 ms (1.00 video frame)
    Interleave, preload duration             : 500 ms

    Скриншоты:

    Срочно! Нужна помощь!
    Поблагодарить релизера!
    pb.wtf



  • Скачать Рай: Вера через торрент http://pic.kartinco.top/images/6/stazu.jpg Скачать фильм Рай: Вера через торрент бесплантно в хорошем качестве Описание:Анна-Мария, по профессии рентгенотехник, уверена, что рай - там, где Иисус. Она посвящает весь свой отпуск миссионерской работе, ... 5 10 1
    Торрент: Зарегистрирован [2014-09-14 07:00] · скачан: 21 раз
    Статус: √ проверено
    Размер: 1.46 GB
    Как cкачать? Как скачать Рай: Вера через торрент | qTorrent

    % Раздел Тема Автор DL S | L
    Арт-хаус и авторское кино [ 2.05 GB ] Рай: Вера / Paradies: Glaube [2012 DVDRip] лицензия diletant Скачать
    1 | 0

    28-11-2019 20:33  

    Отключить всю рекламу на сайте

      Дорогой пользователь! Огромная просьба, поблагодарите релизера, оцените раздачу и оставьте свои комментарий, если Вы скачали Рай: Вера через торрент бесплатно! Внесите свою лепту в развитие PiratBit!
      Комментировать посты могут только пользователи прошедшие не сложную регистрацию
      Показать сообщения:    

      Рай: Вера через торрент
      Скачать бесплатно Рай: Вера
      Рай: Вера скачать торрент
      Рай: Вера смотреть онлайн
      Cкачать фильм Рай: Вера бесплатно
      Рай: Вера скачать торрент в хорошем качестве
      Рай: Вера смотреть онлайн бесплатно в хорошем качестве


      Вы не можете начинать темы
      Вы не можете отвечать на сообщения
      Вы не можете редактировать свои сообщения
      Вы не можете удалять свои сообщения
      Вы не можете голосовать в опросах
      Вы не можете прикреплять файлы к сообщениям
      Вы можете скачивать файлы