Ссылка на приватное зеркало всего за 1$. Внимание количество ограничено!!!


iTunes

1+1

iTunes

мы

WEB-DL

1

iTunes

Чернобыль

iTunes

Ральф против интернета

Лицензия

ПШазам

Лицензия

Оно 2

WEB-DL

30
pack

Вам бонус

ВАЖНО

!!Акция!!

Alien_RageХит недели

RePack

Resident Evil 21

ИГРА 18+

pack

RePack

jed

!!Акция!!

Alien_Rage

RePack

fifa19

RePack

Assassins Creed: Odyssey

RePack

NEED FOR SPEED™ PAYBACK

4 сезон

9 сезон

Бесстыжие 9 сезон

Все сериалы

все сериалы на PB.wtf

RePack

FAR CRY 5
Ребята, катастрофически не хватает 1900р. для оплаты серверов за Октябрь (всвязи с блокировками трафик упал в 3 раза), 1-2р., выручайте.
  

Фальсификатор / Falsifikator (Горан Маркович) [2013, драма, комедия, DVDRip, Субтитры (Русские)] pb.wtf

Фальсификатор через торрент pb.wtf

Размер: 1.27 GB | Добавлен: 5 лет 3 мес. назад | Торрент скачан:21 раз
Скачать  

14-09-2014 07:04 Фальсификатор Скачать торрент  

Фальсификатор / Falsifikator


Год выпуска: 2013
Страна: Сербия, Босния-Герцеговина, Хорватия
Жанр:драма, комедия
Продолжительность:01:30:11
Перевод:Субтитры(Русские)
Режиссер:Горан Маркович

  • В ролях:

    Тихомир Станич (Andjelko), Бранка Катич (Mirjana), Dusan Plavsic (Slobodan), Михайло Станич (Jugoslav), Харис Бурина (Postar Smajo), Ерней Сугман (Drago), Светозар Цветкович (Janez), Натаса Маркович (Slavica), Миодраг Крстович (Trzisni inspektor), Петар Мирчевски (Komandir Popovski), Эмир Хаджихафизбегович (Suljo), Горан Навойеч (Kangrga)

  • Описание:
    Действие фильма происходит в конце 1960-х годов в Югославии. Анджелко - директор средней школы в небольшом боснийском местечке Дубица. Он верит в единую Югославию и боготворит ее лидера Иосипа Броз Тито. Однако у Анджелко есть один серьезный недостаток - он подделывает дипломы об образовании, причем делает это не ради выгоды, а по доброте душевной. О его деятельности становится известно властям, и ему приходится сбежать из родных мест в большой город.

  • Мировая премьера:3 марта 2013

    Качество: DVDRip
    Формат:AVI
    Видео кодек: XviD
    Аудио кодек:AC3
    Видео: XviD, 720x304 (2.35:1), 1562 kbps, 25 fps, 0,285 bpp
    Аудио: AC3 / 5.1 / 48 kHz / 448 kbps / 16 bit


    Код:

    General
    Complete name                            : D:\Торенты\Falsifikator\Falsifikator.avi
    Format                                   : AVI
    Format/Info                              : Audio Video Interleave
    File size                                : 1.27 GiB
    Duration                                 : 1h 30mn
    Overall bit rate                         : 2 020 Kbps
    Writing application                      : VirtualDubMod 1.5.10.2 (build 2540/release)
    Writing library                          : VirtualDubMod build 2540/release

    Video
    ID                                       : 0
    Format                                   : MPEG-4 Visual
    Format profile                           : Advanced Simple@L5
    Format settings, BVOP                    : 1
    Format settings, QPel                    : No
    Format settings, GMC                     : No warppoints
    Format settings, Matrix                  : Custom
    Codec ID                                 : XVID
    Codec ID/Hint                            : XviD
    Duration                                 : 1h 30mn
    Bit rate                                 : 1 562 Kbps
    Width                                    : 720 pixels
    Height                                   : 304 pixels
    Display aspect ratio                     : 2.35:1
    Frame rate                               : 25.000 fps
    Color space                              : YUV
    Chroma subsampling                       : 4:2:0
    Bit depth                                : 8 bits
    Scan type                                : Progressive
    Compression mode                         : Lossy
    Bits/(Pixel*Frame)                       : 0.285
    Stream size                              : 1 008 MiB (77%)
    Writing library                          : XviD 64

    Audio
    ID                                       : 1
    Format                                   : AC-3
    Format/Info                              : Audio Coding 3
    Mode extension                           : CM (complete main)
    Codec ID                                 : 2000
    Duration                                 : 1h 30mn
    Bit rate mode                            : Constant
    Bit rate                                 : 448 Kbps
    Channel(s)                               : 6 channels
    Channel positions                        : Front: L C R, Side: L R, LFE
    Sampling rate                            : 48.0 KHz
    Bit depth                                : 16 bits
    Compression mode                         : Lossy
    Stream size                              : 289 MiB (22%)
    Alignment                                : Split accross interleaves
    Interleave, duration                     : 40 ms (1.00 video frame)
    Interleave, preload duration             : 500 ms

    Скриншоты:

    Срочно! Нужна помощь!
    Поблагодарить релизера!
    pb.wtf



  • Скачать Фальсификатор через торрент http://pic.kartinco.top/images/6/stazu.jpg Скачать фильм Фальсификатор через торрент бесплантно в хорошем качестве Описание:Действие фильма происходит в конце 1960-х годов в Югославии. Анджелко - директор средней школы в небольшом боснийском местечке ... 10 10 1
    Торрент: Зарегистрирован [2014-09-14 07:04] · скачан: 21 раз
    Статус: √ проверено
    Размер: 1.27 GB
    Как cкачать? Как скачать Фальсификатор через торрент | qTorrent

    28-11-2019 20:33  

    Отключить всю рекламу на сайте

      Дорогой пользователь! Огромная просьба, поблагодарите релизера, оцените раздачу и оставьте свои комментарий, если Вы скачали Фальсификатор через торрент бесплатно! Внесите свою лепту в развитие PiratBit!
      Комментировать посты могут только пользователи прошедшие не сложную регистрацию
      Показать сообщения:    

      Фальсификатор через торрент
      Скачать бесплатно Фальсификатор
      Фальсификатор скачать торрент
      Фальсификатор смотреть онлайн
      Cкачать фильм Фальсификатор бесплатно
      Фальсификатор скачать торрент в хорошем качестве
      Фальсификатор смотреть онлайн бесплатно в хорошем качестве


      Вы не можете начинать темы
      Вы не можете отвечать на сообщения
      Вы не можете редактировать свои сообщения
      Вы не можете удалять свои сообщения
      Вы не можете голосовать в опросах
      Вы не можете прикреплять файлы к сообщениям
      Вы можете скачивать файлы