новый адрес
Ссылка на приватное зеркало всего за 1$. Внимание количество ограничено!!!

iTunes

1+1

iTunes

мы

WEB-DL

1

iTunes

Чернобыль

iTunes

Ральф против интернета

Лицензия

ПШазам

Лицензия

Оно 2

Лицензия

30
pack

Вам бонус

ВАЖНО

!!Акция!!

Alien_RageХит недели

RePack

Resident Evil 21

ИГРА 18+

pack

RePack

jed

!!Акция!!

Alien_Rage

RePack

fifa19

RePack

Assassins Creed: Odyssey

RePack

NEED FOR SPEED™ PAYBACK

3 сезон

9 сезон

Бесстыжие 9 сезон

Все сериалы

все сериалы на PB.wtf

RePack

FAR CRY 5
Ребята, катастрофически не хватает 1900р. для оплаты серверов за Октябрь (всвязи с блокировками трафик упал в 3 раза), 1-2р., выручайте.
  

Земля обетованная / Promised Land (Гас Ван Сент) [2012, драма, HDRip, Профессиональный многоголосый] pb.wtf

Земля обетованная через торрент pb.wtf

Размер: 1.46 GB | Добавлен: 5 лет 2 мес. назад | Торрент скачан:18 раз
Скачать  

14-09-2014 08:07 Земля обетованная Скачать торрент  

Земля обетованная / Promised Land
«What's your price?»

Год выпуска: 2012
Страна: США, ОАЭ
Жанр:драма
Продолжительность:01:46:35
Перевод:Профессиональный многоголосый
Режиссер:Гас Ван Сент

  • В ролях:

    Мэтт Дэймон (Steve Butler), Бенжамин Шилер (Attendant), Терри Кинни (David Churchill), Карла Бьянко (Waitress), Джо Койл (Michael Downey), Хэл Холбрук (Frank Yates), Дороти Сильвер (Arlene), Фрэнсис МакДорманд (Sue Thomason), Титус Уэлливер (Rob), Лекси Коуэн (Drew's Girl), Тим Гини (Drew Scott), Сара Линдсей (Claire Allen)

  • Описание:
    Корпоративный агент Стив Батлер и его партнер Сью Томасон приезжают в маленький городок, в последние годы переживающий кризис. Местные жители готовы принять предложение компании и дать согласие на бурение скважины на территории их собственности. Все осложняется, когда в дело вмешиваются школьный учитель и представитель профсоюза, с которым у Стива личные счеты.

  • Мировая премьера:28 декабря 2012

    Качество: HDRip
    Формат:AVI
    Видео кодек: XviD
    Аудио кодек:AC3
    Видео: XviD, 720x384 (1.875), 1758 kbps, 23,976 fps, 0,265 bpp
    Аудио: AC3 / 2.0 / 48 kHz / 192 kbps / 16 bit


    Код:

    General
    Complete name                            : D:\Торенты\Zemlya.Obetovannaiy.2012.P.HDRip.1400MB.avi
    Format                                   : AVI
    Format/Info                              : Audio Video Interleave
    File size                                : 1.46 GiB
    Duration                                 : 1h 46mn
    Overall bit rate                         : 1 960 Kbps
    Writing application                      : VirtualDubMod 1.5.10.2 (build 2540/release)
    Writing library                          : VirtualDubMod build 2540/release

    Video
    ID                                       : 0
    Format                                   : MPEG-4 Visual
    Format profile                           : Advanced Simple@L5
    Format settings, BVOP                    : 2
    Format settings, QPel                    : No
    Format settings, GMC                     : No warppoints
    Format settings, Matrix                  : Default (MPEG)
    Codec ID                                 : XVID
    Codec ID/Hint                            : XviD
    Duration                                 : 1h 46mn
    Bit rate                                 : 1 759 Kbps
    Width                                    : 720 pixels
    Height                                   : 384 pixels
    Display aspect ratio                     : 1.875
    Frame rate                               : 23.976 fps
    Color space                              : YUV
    Chroma subsampling                       : 4:2:0
    Bit depth                                : 8 bits
    Scan type                                : Progressive
    Compression mode                         : Lossy
    Bits/(Pixel*Frame)                       : 0.265
    Stream size                              : 1.31 GiB (90%)
    Writing library                          : XviD 1.2.1 (UTC 2008-12-04)

    Audio
    ID                                       : 1
    Format                                   : AC-3
    Format/Info                              : Audio Coding 3
    Mode extension                           : CM (complete main)
    Codec ID                                 : 2000
    Duration                                 : 1h 46mn
    Bit rate mode                            : Constant
    Bit rate                                 : 192 Kbps
    Channel(s)                               : 2 channels
    Channel positions                        : Front: L R
    Sampling rate                            : 48.0 KHz
    Bit depth                                : 16 bits
    Compression mode                         : Lossy
    Stream size                              : 146 MiB (10%)
    Alignment                                : Split accross interleaves
    Interleave, duration                     : 42 ms (1.00 video frame)
    Interleave, preload duration             : 500 ms

    Скриншоты:

    Срочно! Нужна помощь!
    Поблагодарить релизера!
    pb.wtf



  • Скачать Земля обетованная через торрент http://pic.kartinco.top/images/6/stazu.jpg Скачать фильм Земля обетованная через торрент бесплантно в хорошем качестве Описание:Корпоративный агент Стив Батлер и его партнер Сью Томасон приезжают в маленький городок, в последние годы переживающий кризис. ... 10 10 2
    Торрент: Зарегистрирован [2014-09-14 08:07] · скачан: 18 раз
    Статус: √ проверено
    Размер: 1.46 GB
    Как cкачать? Как скачать Земля обетованная через торрент | qTorrent

    % Раздел Тема Автор DL S | L
    T Релизы по Парсеру [Игры, Сериалы и Фильмы и другое...] [ 1.46 GB ] Земля обетованная / Promised Land [2004 Израиль DVDRip] DVO sanekbest1 Скачать
    1 | 0
    Фильмы (DVD фильмы) [ 3.99 GB ] Земля обетованная / Promised Land [2012 DVD5] R5 voovaz Скачать
    1 | 0
    Арт-хаус и авторское кино [ 1.4 GB ] Земля обетованная / Promised Land [2012 HDRip многоголосый] Ворон Скачать
    1 | 0
    Арт-хаус и авторское кино [ 2.05 GB ] Земля обетованная / Promised Land [2012 HDRip многоголосый] Ворон Скачать
    1 | 0
    Арт-хаус и авторское кино [ 1.46 GB ] Земля обетованная / Promised Land [2012 WEB-DLRip DVO] Ворон Скачать
    1 | 0

    28-11-2019 20:33  

    Отключить всю рекламу на сайте

      Дорогой пользователь! Огромная просьба, поблагодарите релизера, оцените раздачу и оставьте свои комментарий, если Вы скачали Земля обетованная через торрент бесплатно! Внесите свою лепту в развитие PiratBit!
      Комментировать посты могут только пользователи прошедшие не сложную регистрацию
      Показать сообщения:    

      Земля обетованная через торрент
      Скачать бесплатно Земля обетованная
      Земля обетованная скачать торрент
      Земля обетованная смотреть онлайн
      Cкачать фильм Земля обетованная бесплатно
      Земля обетованная скачать торрент в хорошем качестве
      Земля обетованная смотреть онлайн бесплатно в хорошем качестве


      Вы не можете начинать темы
      Вы не можете отвечать на сообщения
      Вы не можете редактировать свои сообщения
      Вы не можете удалять свои сообщения
      Вы не можете голосовать в опросах
      Вы не можете прикреплять файлы к сообщениям
      Вы можете скачивать файлы