Всегда рабочее зеркало просто перед .vidak.icu напиши любое слово или цифру, Пример http://ofc.vidak.icu

>

7.4

iTunes

7.4

2 сезон

9.4

1 сезон

1

7.4

2 сезон

7.2

iTunes

6.0

MVO

13

6.1

iTunes

8.3

Пиратка

30

ULTIMATE

pack

9.9

Лицензия

ВАЖНО

ИГРА 18+

pack

7.3

RePack

MK11

7.7

RePack

jed

7.8

RePack

fifa19

8.5

RePack

RDR2

RePack

NEED FOR SPEED™ PAYBACK

1 сезон

9 сезон

Бесстыжие 9 сезон

Все сериалы

все сериалы на PB.wtf

RePack

FAR CRY 5

Anonymous, доброй ночи, мы катастрофически не успеваем собрать деньги на оплату серверов, помогите нам пожалуйста 5,10,15р., для нас важна любая помощь . В качестве благодарности мы отключим Вам всю рекламу на сайте (укажите свой ник в строку Ваше имя)!

×
  
Magnet ссылка

Рай: Надежда / Paradies: Hoffnung (Ульрих Зайдль) [2013, драма, HDRip, Профессиональный многоголосый] pb.wtf

Рай: Надежда через торрент pb.wtf

Размер: 1.37 GB | Добавлен: 7 лет 4 мес. назад | Торрент скачан:31 раз
Смотреть онлайн Рай: Надежда | Скачать    Ребята, помогите собрать деньги на оплату серверов!!!

14-09-2014 08:29 Рай: Надежда Скачать торрент  

Рай: Надежда / Paradies: Hoffnung


Год выпуска: 2013
Страна: Австрия, Франция, Германия
Жанр:драма
Продолжительность:01:31:20
Перевод:Профессиональный многоголосый
Режиссер:Ульрих Зайдль

  • В ролях:

    Мелани Ленц (Melanie), Верена Лебауэр (Verena), Йозеф Лоренц (Arzt), Михаэль Томас (Sporttrainer), Вивиана Барч (Ernährungsberaterin), Райнер Луттенбергер (Bursche in Disco (Willi)), Ханнес А. Пендль, Йоханна Шмид (Hanni)

  • Описание:
    Её мать уезжает в Кению в поисках мальчиков, готовых предоставить ей любовные услуги. Её тетя - католик, с головой поглощённая проповедованием Евангелия. А 13-летняя Мелани проводит свои каникулы в диетическом лагере в Австрийских горах. В перерывах между физическими упражнениями и консультациями по вопросам питания, ночными боями подушками и тайными соревнованиями «кто больше выпьет» на местной дискотеке она влюбляется в доктора и по совместительству директора лагеря, который старше её на сорок лет...

  • Мировая премьера:8 февраля 2013

    Качество: HDRip
    Формат:AVI
    Видео кодек: XviD
    Аудио кодек:AC3
    Видео: XviD, 720x384 (1.875), 1940 kbps, 23,976 fps, 0,293 bpp
    Аудио: AC3 / 2.0 / 48 kHz / 192 kbps / 16 bit


    Код:

    General
    Complete name                            : D:\Торенты\Raj.nadezhda_2013.HDRip.avi
    Format                                   : AVI
    Format/Info                              : Audio Video Interleave
    File size                                : 1.37 GiB
    Duration                                 : 1h 31mn
    Overall bit rate                         : 2 142 Kbps
    Writing application                      : VirtualDubMod 1.5.10.2 (build 2540/release)
    Writing library                          : VirtualDubMod build 2540/release

    Video
    ID                                       : 0
    Format                                   : MPEG-4 Visual
    Format profile                           : Advanced Simple@L5
    Format settings, BVOP                    : 2
    Format settings, QPel                    : No
    Format settings, GMC                     : No warppoints
    Format settings, Matrix                  : Default (MPEG)
    Codec ID                                 : XVID
    Codec ID/Hint                            : XviD
    Duration                                 : 1h 31mn
    Bit rate                                 : 1 941 Kbps
    Width                                    : 720 pixels
    Height                                   : 384 pixels
    Display aspect ratio                     : 1.875
    Frame rate                               : 23.976 fps
    Color space                              : YUV
    Chroma subsampling                       : 4:2:0
    Bit depth                                : 8 bits
    Scan type                                : Progressive
    Compression mode                         : Lossy
    Bits/(Pixel*Frame)                       : 0.293
    Stream size                              : 1.24 GiB (91%)
    Writing library                          : XviD 1.2.1 (UTC 2008-12-04)

    Audio
    ID                                       : 1
    Format                                   : AC-3
    Format/Info                              : Audio Coding 3
    Mode extension                           : CM (complete main)
    Codec ID                                 : 2000
    Duration                                 : 1h 31mn
    Bit rate mode                            : Constant
    Bit rate                                 : 192 Kbps
    Channel(s)                               : 2 channels
    Channel positions                        : Front: L R
    Sampling rate                            : 48.0 KHz
    Bit depth                                : 16 bits
    Compression mode                         : Lossy
    Stream size                              : 125 MiB (9%)
    Alignment                                : Split accross interleaves
    Interleave, duration                     : 42 ms (1.00 video frame)
    Interleave, preload duration             : 500 ms

    Скриншоты:

    Срочно! Нужна помощь!
    Поблагодарить релизера!
    pb.wtf



  • Скачать Рай: Надежда через торрент https://pic1.kartinco.top/images/61/stazu.jpg Скачать, смотреть онлайн Рай: Надежда бесплантно в хорошем качестве Описание:Её мать уезжает в Кению в поисках мальчиков, готовых предоставить ей любовные услуги. Её тетя - католик, с головой поглощённая ... 10 10 1
    Торрент: Зарегистрирован [2014-09-14 08:29] · скачан: 31 раз
    Статус: √ проверено
    Размер: 1.37 GB
    Как cкачать? Как скачать Рай: Надежда через торрент | UTorrent

    28-11-2019 20:33  

    Отключить всю рекламу на сайте

      Дорогой пользователь! Огромная просьба, поблагодарите релизера, оцените раздачу и оставьте свои комментарий, если Вы скачали Рай: Надежда через торрент бесплатно!
      Комментировать посты могут только пользователи прошедшие не сложную регистрацию
      Показать сообщения:    

      Рай: Надежда через торрент
      Скачать бесплатно Рай: Надежда
      Рай: Надежда скачать торрент
      Рай: Надежда смотреть онлайн
      Cкачать фильм Рай: Надежда бесплатно
      Рай: Надежда скачать торрент в хорошем качестве
      Рай: Надежда смотреть онлайн бесплатно в хорошем качестве


      Вы не можете начинать темы
      Вы не можете отвечать на сообщения
      Вы не можете редактировать свои сообщения
      Вы не можете удалять свои сообщения
      Вы не можете голосовать в опросах
      Вы не можете прикреплять файлы к сообщениям
      Вы можете скачивать файлы