Ссылка на приватное зеркало нашего сайта всего за 1$. Внимание количество ограничено!!!

2 сезон

iTunes

1 сезон

1

iTunes

iTunes

iTunes

1 сезон

RePack

30

ИГРА 18+

pack

ВАЖНО

!!Акция!!

Alien_RageХит недели

RePack

MK11
pack

Забери бонус

RePack

jed

!!Акция!!

Alien_Rage

RePack

fifa19

RePack

Assassins Creed: Odyssey

RePack

NEED FOR SPEED™ PAYBACK

4 сезон

9 сезон

Бесстыжие 9 сезон

Все сериалы

все сериалы на PB.wtf

RePack

FAR CRY 5
  

Малефисента / Maleficent (Роберт Стромберг / Robert Stromberg) 2014, США, Великобритания, фэнтези, семейный, мелодрама, BDRip 720p, Дубляж - Лицензия / iTunes] pb.wtf

Малефисента через торрент pb.wtf

Раздают: 1 [ 0 KB/s ]
Размер: 4.63 GB | Добавлен: 6 лет 1 мес. назад | Торрент скачан:959 раз
Скачать  

14-09-2014 09:18 Малефисента Скачать торрент  

Малефисента / Maleficent«Не верьте сказкам»
Год выпуска: 2014
Страна: США, Великобритания
Жанр: фэнтези, семейный, мелодрама, приключения
Продолжительность: 01:37:28
Перевод: Дубляж - [Лицензия / iTunes]
Субтитры: Отсутствует
Режиссер: Роберт Стромберг / Robert Stromberg
В ролях:


Анджелина Джоли (Maleficent), Эль Фаннинг (Aurora), Шарлто Копли (Stefan), Лесли Мэнвилл (Flittle), Имелда Стонтон (Knotgrass), Джуно Темпл (Thistletwit), Сэм Райли (Diaval), Брентон Туэйтс (Prince Phillip), Кеннет Крэнэм (King Henry), Сара Флинд (Princess Leila's Handmaiden), Ханна Нью (Queen Leah), Изобель Моллой (Young Maleficent)

Описание:
Юная волшебница Малефисента вела уединенную жизнь в зачарованном лесу, окруженная сказочными существами, но однажды все изменилось... В её мир вторглись люди, которые принесли с собой разрушение и хаос, и Малефисенте пришлось встать на защиту своих подданных, призвав на помощь могущественные тёмные силы. В пылу борьбы Малефисента наложила страшное заклятие на новорожденную дочь короля, прекрасную Аврору. Но, наблюдая за тем, как растет маленькая принцесса, Малефисента начинает сомневаться в правильности своего поступка - ведь, возможно, именно Аврора может вдохнуть новую жизнь в волшебное лесное царство.

Рейтинг:
Бюджет: $180 000 000
MPAA: PG - Рекомендуется присутствие родителей
Качество: BDRip 720p
Формат: MKV
Видео кодек:AVC
Аудио кодек:AC3, DTS
Видео: AVC, 1280x536 (2.40:1), 4906 kbps, 23,976 fps, 0,298 bpp
Аудио №1: русский / AC3 / 5.1 / 48 kHz / 384 kbps / 16 bit
Аудио №2: английский / DTS / 5.1 / 48 kHz / 1510 kbps / 24 bit


General
Unique ID : 170878060194723758546263156097543132063 (0x808DEAD3F640BBECBFE8AF384691539F)
Complete name : D:\Users\_KaisiK_\Bitcomet\КИНО\Maleficent.2014.720p.BluRay.x264.mkv
Format : Matroska
Format version : Version 2
File size : 4.63 GiB
Duration : 1h 37mn
Overall bit rate : 6 797 Kbps
Encoded date : UTC 2014-09-12 02:27:47
Writing application : mkvmerge v5.0.1 ('Es ist Sommer') built on Nov 6 2011 16:23:40
Writing library : libebml v1.2.2 + libmatroska v1.3.0

Video
ID : 1
Format : AVC
Format/Info : Advanced Video Codec
Format profile : High@L4.1
Format settings, CABAC : Yes
Format settings, ReFrames : 5 frames
Muxing mode : Header stripping
Codec ID : V_MPEG4/ISO/AVC
Duration : 1h 37mn
Bit rate : 4 906 Kbps
Width : 1 280 pixels
Height : 536 pixels
Display aspect ratio : 2.40:1
Frame rate : 23.976 fps
Color space : YUV
Chroma subsampling : 4:2:0
Bit depth : 8 bits
Scan type : Progressive
Bits/(Pixel*Frame) : 0.298
Stream size : 3.25 GiB (70%)
Writing library : x264 core 142 r2453 ea0ca51
Encoding settings : cabac=1 / ref=5 / deblock=1:0:0 / analyse=0x3:0x133 / me=umh / subme=7 / psy=1 / psy_rd=1.00:0.00 / mixed_ref=1 / me_range=16 / chroma_me=1 / trellis=1 / 8x8dct=1 / cqm=0 / deadzone=21,11 / fast_pskip=0 / chroma_qp_offset=-2 / threads=18 / lookahead_threads=3 / sliced_threads=0 / nr=0 / decimate=1 / interlaced=0 / bluray_compat=0 / constrained_intra=0 / bframes=3 / b_pyramid=2 / b_adapt=1 / b_bias=0 / direct=1 / weightb=1 / open_gop=0 / weightp=2 / keyint=250 / keyint_min=23 / scenecut=40 / intra_refresh=0 / rc_lookahead=40 / rc=2pass / mbtree=1 / bitrate=4906 / ratetol=1.0 / qcomp=0.60 / qpmin=0 / qpmax=69 / qpstep=4 / cplxblur=20.0 / qblur=0.5 / ip_ratio=1.40 / aq=1:1.00
Language : English
Default : Yes
Forced : No

Audio #1
ID : 2
Format : AC-3
Format/Info : Audio Coding 3
Mode extension : CM (complete main)
Muxing mode : Header stripping
Codec ID : A_AC3
Duration : 1h 37mn
Bit rate mode : Constant
Bit rate : 384 Kbps
Channel(s) : 6 channels
Channel positions : Front: L C R, Side: L R, LFE
Sampling rate : 48.0 KHz
Bit depth : 16 bits
Compression mode : Lossy
Stream size : 268 MiB (6%)
Title : Русский
Language : Russian
Default : Yes
Forced : No

Audio #2
ID : 3
Format : DTS
Format/Info : Digital Theater Systems
Muxing mode : Header stripping
Codec ID : A_DTS
Duration : 1h 37mn
Bit rate mode : Constant
Bit rate : 1 510 Kbps
Channel(s) : 6 channels
Channel positions : Front: L C R, Side: L R, LFE
Sampling rate : 48.0 KHz
Bit depth : 24 bits
Compression mode : Lossy
Stream size : 1.03 GiB (22%)
Title : Английский
Language : English
Default : No
Forced : No

Menu
00:00:00.000 : en:00:00:00.000
00:03:00.597 : en:00:03:00.597
00:08:10.949 : en:00:08:10.949
00:14:00.757 : en:00:14:00.757
00:19:10.608 : en:00:19:10.608
00:25:59.057 : en:00:25:59.057
00:33:09.738 : en:00:33:09.738
00:38:30.808 : en:00:38:30.808
00:43:21.140 : en:00:43:21.140
00:46:56.105 : en:00:46:56.105
00:51:11.944 : en:00:51:11.944
00:54:18.797 : en:00:54:18.797
00:58:37.723 : en:00:58:37.723
01:01:58.048 : en:01:01:58.048
01:05:09.989 : en:01:05:09.989
01:09:56.776 : en:01:09:56.776
01:15:40.619 : en:01:15:40.619
01:17:43.659 : en:01:17:43.659
01:25:44.931 : en:01:25:44.931
01:28:38.647 : en:01:28:38.647

[/code]
pb.wtf



Скачать Малефисента через торрент http://i6.imageban.ru/out/2014/09/14/0463792f341c8e4326347e211b0db113.jpg Скачать фильм Малефисента через торрент бесплантно в хорошем качестве Описание: Юная волшебница Малефисента вела уединенную жизнь в зачарованном лесу, окруженная сказочными существами, но однажды все ... 9.9 10 19
Info! Золотая раздача, скачанное не засчитывается.
Торрент: Зарегистрирован [2014-09-14 09:18] · скачан: 959 раз
Статус: √ проверено
Размер: 4.63 GB
Как cкачать? Как скачать Малефисента через торрент | qTorrent

28-11-2019 20:33  

Отключить всю рекламу на сайте

    Дорогой пользователь! Огромная просьба, поблагодарите релизера, оцените раздачу и оставьте свои комментарий, если Вы скачали Малефисента через торрент бесплатно! Внесите свою лепту в развитие PiratBit!
    Комментировать посты могут только пользователи прошедшие не сложную регистрацию
    Показать сообщения:    

    Малефисента через торрент
    Скачать бесплатно Малефисента
    Малефисента скачать торрент
    Малефисента смотреть онлайн
    Cкачать фильм Малефисента бесплатно
    Малефисента скачать торрент в хорошем качестве
    Малефисента смотреть онлайн бесплатно в хорошем качестве


    Вы не можете начинать темы
    Вы не можете отвечать на сообщения
    Вы не можете редактировать свои сообщения
    Вы не можете удалять свои сообщения
    Вы не можете голосовать в опросах
    Вы не можете прикреплять файлы к сообщениям
    Вы можете скачивать файлы