1 сезон

1 сезон

iTunes

1

КиноПоиск HD

Кинопоиск HD

iTunes

13

1 сезон

RePack

30

Новинка

ВАЖНО

ИГРА 18+

pack

RePack

MK11
pack

Легкие деньги

RePack

jed

RePack

fifa19

RePack

RDR2

RePack

NEED FOR SPEED™ PAYBACK

4 сезон

9 сезон

Бесстыжие 9 сезон

Все сериалы

все сериалы на PB.wtf

RePack

FAR CRY 5
  
Magnet ссылка

Время обнуления / The Zero Years (Никос Николаидис / Nikos Nikolaidis) [2005, Греция, драма, DVDRip, Любительский (одноголосый)] pb.wtf

Время обнуления через торрент pb.wtf

Размер: 1.46 GB | Добавлен: 6 лет 7 мес. назад | Торрент скачан:69 раз
Скачать  

14-09-2014 12:36 Время обнуления Скачать торрент  

Время обнуления / The Zero Years

Год выпуска: 2005
Страна: Греция
Жанр: драма, эротика
Продолжительность: 02:05:54
Перевод: Любительский (одноголосый)[Гундос]
Субтитры: Отсутствует
Режиссер: Никос Николаидис / Nikos Nikolaidis
В ролях:


Вики Харрис (Vicky), Jenny Kitseli (The leader), Arhontissa Mavrakaki (Maro), Eftyhia Yakoumi (Christina), Мишель Вэлли (Supervisor), Alkis Panagiotidis

Описание:
История четырех женщин, находящихся в особом борделе, под непрерывным наблюдением. В их обязанности входит избивать клиентов до бессознательного состояния. Отношения между ними в критической точке, еда и вода ограничены...
Кошмарные видения, выкидыши и изнасилования, инъекции и тошнота все это составляет их распорядок дня. Однажды, один из их клиентов исчезает. Допросы начинаются...

Рейтинг:

Качество: DVDRip
Формат: AVI
Видео кодек:XviD
Аудио кодек:AC3
Видео: XviD, 640x368 (16:9), 1204 kbps, 25 fps, 0,205 bpp
Аудио: AC3 / 5.1 / 48 kHz / 448 kbps / 16 bit

General
Complete name : D:\Users\_KaisiK_\Bitcomet\КИНО\Vremya obnuleniya 2005 DVDRip.avi
Format : AVI
Format/Info : Audio Video Interleave
File size : 1.46 GiB
Duration : 2h 5mn
Overall bit rate : 1 662 Kbps
Writing application : VirtualDubMod 1.5.10.2 (build 2540/release)
Writing library : VirtualDubMod build 2540/release

Video
ID : 0
Format : MPEG-4 Visual
Format profile : Advanced Simple@L5
Format settings, BVOP : 1
Format settings, QPel : No
Format settings, GMC : No warppoints
Format settings, Matrix : Default (MPEG)
Codec ID : XVID
Codec ID/Hint : XviD
Duration : 2h 5mn
Bit rate : 1 205 Kbps
Width : 640 pixels
Height : 368 pixels
Display aspect ratio : 16:9
Frame rate : 25.000 fps
Color space : YUV
Chroma subsampling : 4:2:0
Bit depth : 8 bits
Scan type : Progressive
Compression mode : Lossy
Bits/(Pixel*Frame) : 0.205
Stream size : 1.06 GiB (72%)
Writing library : XviD 1.1.2 (UTC 2006-11-01)

Audio
ID : 1
Format : AC-3
Format/Info : Audio Coding 3
Mode extension : CM (complete main)
Codec ID : 2000
Duration : 2h 5mn
Bit rate mode : Constant
Bit rate : 448 Kbps
Channel(s) : 6 channels
Channel positions : Front: L C R, Side: L R, LFE
Sampling rate : 48.0 KHz
Bit depth : 16 bits
Compression mode : Lossy
Stream size : 403 MiB (27%)
Alignment : Split accross interleaves
Interleave, duration : 40 ms (1.00 video frame)
Interleave, preload duration : 500 ms

[/code]
pb.wtf



Скачать Время обнуления через торрент http://i5.imageban.ru/out/2014/09/14/841a42d2a2f79e36a6f65ac5048fce9f.jpg Скачать фильм Время обнуления через торрент бесплантно в хорошем качестве Описание: История четырех женщин, находящихся в особом борделе, под непрерывным наблюдением. В их обязанности входит избивать клиентов до ... 7.8 10 4
Торрент: Зарегистрирован [2014-09-14 12:36] · скачан: 69 раз
Статус: √ проверено
Размер: 1.46 GB
Как cкачать? Как скачать Время обнуления через торрент | UTorrent

28-11-2019 20:33  

Отключить всю рекламу на сайте


    Дорогой пользователь! Огромная просьба, поблагодарите релизера, оцените раздачу и оставьте свои комментарий, если Вы скачали Время обнуления через торрент бесплатно! Внесите свою лепту в развитие PiratBit!
    Комментировать посты могут только пользователи прошедшие не сложную регистрацию
    Показать сообщения:    

    Время обнуления через торрент
    Скачать бесплатно Время обнуления
    Время обнуления скачать торрент
    Время обнуления смотреть онлайн
    Cкачать фильм Время обнуления бесплатно
    Время обнуления скачать торрент в хорошем качестве
    Время обнуления смотреть онлайн бесплатно в хорошем качестве


    Вы не можете начинать темы
    Вы не можете отвечать на сообщения
    Вы не можете редактировать свои сообщения
    Вы не можете удалять свои сообщения
    Вы не можете голосовать в опросах
    Вы не можете прикреплять файлы к сообщениям
    Вы можете скачивать файлы