2 сезон

iTunes

MVO

1

2 сезон

iTunes

iTunes

1 сезон

RePack

30

Новинка

ВАЖНО

ИГРА 18+

pack

RePack

MK11
pack

Легкие деньги

RePack

jed

RePack

fifa19

RePack

RDR2

RePack

NEED FOR SPEED™ PAYBACK

4 сезон

9 сезон

Бесстыжие 9 сезон

Все сериалы

все сериалы на PB.wtf

RePack

FAR CRY 5

Anonymous, доброй ночи, мы не успеваем собрать деньги на оплату серверов за декабрь и январь, помогите нам пожалуйста в это трудное время. В качестве благодарности мы отключим Вам всю рекламу на сайте (укажите свой ник в строку Ваше имя)!

×
  
Magnet ссылка

Последняя любовь мистера Моргана / Mr. Morgan's Last Love (Сандра Неттельбек) [2013 г., драма, HDRip, Дубляж, Лицензия] pb.wtf

Последняя любовь мистера Моргана через торрент pb.wtf

Размер: 1.46 GB | Добавлен: 6 лет 4 мес. назад | Торрент скачан:261 раз
Скачать  

14-09-2014 15:40 Последняя любовь мистера Моргана Скачать торрент  

Последняя любовь мистера Моргана / Mr. Morgan's Last Love

Год выпуска: 2013
Страна: Германия, Бельгия, США, Франция
Жанр: драма
Продолжительность: 01:55:48
Перевод: Дубляж, Лицензия

Режиссер: Сандра Неттельбек
Продюссер: Астрид Камке, Фрэнк Камински, Филипп Кройцер
Сценарий: Сандра Неттельбек, Франсуаза Дорнер
Премьера в мире: 29 июня 2013

IMDB 6.80 (5872)


В ролях: Майкл Кейн, Мишель Годде, Джейн Александр, Серж Оллонье, Фред Фучс, Йохан Гиньяр, Дитер Рапп, Джиллиан Андерсон, Кристель Корнил, Аликс Пуасон, Игорь Коробов, Любовь Марчук, Татьяна Сезоненко, Вероника Райциз, Татьяна Бабенкова

Описание: Пожилой американский профессор Мэтью Морган одиноко и замкнуто живет в Париже, преподает философию в университете. Жена, которую он очень любил, умерла несколько лет назад. Кажется, что всё главное в его жизни осталось в прошлом. Так и было, пока однажды в автобусе ему, едва не упавшему, не протянула руку помощи Полин, молодая, открытая, веселая парижанка...

Качество: HDRip
Формат: AVI
Видео кодек: XviD
Аудио кодек: AC3
Видео: XviD, 1413 Кбит/с, 720x384, 23.976 fps
Аудио: АС3, 6 ch, 384 Кбит/с, 48.0 KHz
General
Complete name : /home/sb753/files/P0slednajayay.lubovj_Mr.Morgana.2013.D.HDRip.1.46GB.avi
Format : AVI
Format/Info : Audio Video Interleave
File size : 1.46 GiB
Duration : 1h 55mn
Overall bit rate : 1 806 Kbps
Writing application : VirtualDubMod 1.5.10.2 (build 2540/release)
Writing library : VirtualDubMod build 2540/release

Video
ID : 0
Format : MPEG-4 Visual
Format profile : Advanced Simple@L5
Format settings, BVOP : 2
Format settings, QPel : No
Format settings, GMC : No warppoints
Format settings, Matrix : Default (MPEG)
Codec ID : XVID
Codec ID/Hint : XviD
Duration : 1h 55mn
Bit rate : 1 413 Kbps
Width : 720 pixels
Height : 384 pixels
Display aspect ratio : 1.85:1
Frame rate : 23.976 fps
Color space : YUV
Chroma subsampling : 4:2:0
Bit depth : 8 bits
Scan type : Progressive
Compression mode : Lossy
Bits/(Pixel*Frame) : 0.213
Stream size : 1.14 GiB (78%)
Writing library : XviD 1.2.1 (UTC 2008-12-04)

Audio
ID : 1
Format : AC-3
Format/Info : Audio Coding 3
Mode extension : CM (complete main)
Format settings, Endianness : Big
Codec ID : 2000
Duration : 1h 55mn
Bit rate mode : Constant
Bit rate : 384 Kbps
Channel(s) : 6 channels
Channel positions : Front: L C R, Side: L R, LFE
Sampling rate : 48.0 KHz
Bit depth : 16 bits
Compression mode : Lossy
Stream size : 318 MiB (21%)
Alignment : Split accross interleaves
Interleave, duration : 42 ms (1.00 video frame)
Interleave, preload duration : 500 ms
pb.wtf



Скачать Последняя любовь мистера Моргана через торрент http://i63.fastpic.ru/big/2014/0914/a4/a9fd97297a5edbf9a94d00f8e8331ea4.png Скачать фильм Последняя любовь мистера Моргана через торрент бесплантно в хорошем качестве Описание: Пожилой американский профессор Мэтью Морган одиноко и замкнуто живет в Париже, преподает философию в университете. Жена, которую ... 10 10 9
Info! Серебряная раздача, засчитывается только 50% скачанного.
Торрент: Зарегистрирован [2014-09-14 15:40] · скачан: 261 раз
Статус: √ проверено
Размер: 1.46 GB
Как cкачать? Как скачать Последняя любовь мистера Моргана через торрент | UTorrent

28-11-2019 20:33  

Отключить всю рекламу на сайте

05-12-2014 20:13 Последняя любовь мистера Моргана Скачать торрент  

как фильм то ?pb.wtf



    Дорогой пользователь! Огромная просьба, поблагодарите релизера, оцените раздачу и оставьте свои комментарий, если Вы скачали Последняя любовь мистера Моргана через торрент бесплатно! Внесите свою лепту в развитие PiratBit!
    Комментировать посты могут только пользователи прошедшие не сложную регистрацию
    Показать сообщения:    

    Последняя любовь мистера Моргана через торрент
    Скачать бесплатно Последняя любовь мистера Моргана
    Последняя любовь мистера Моргана скачать торрент
    Последняя любовь мистера Моргана смотреть онлайн
    Cкачать фильм Последняя любовь мистера Моргана бесплатно
    Последняя любовь мистера Моргана скачать торрент в хорошем качестве
    Последняя любовь мистера Моргана смотреть онлайн бесплатно в хорошем качестве


    Вы не можете начинать темы
    Вы не можете отвечать на сообщения
    Вы не можете редактировать свои сообщения
    Вы не можете удалять свои сообщения
    Вы не можете голосовать в опросах
    Вы не можете прикреплять файлы к сообщениям
    Вы можете скачивать файлы