Мега распродажа FORZA HORIZON 4 ULTIMATE+ВСЕ DLC+ОНЛАЙН всего за 499р. 349 руб. (супер цена). Внимание количество ограничено!!!

Лицензия

30

iTunes

мы

iTunes

1

1 сезон

Чернобыль

1 сезон

Ральф против интернета

MVO

Покемон. Детектив Пикачу

8 сезон

Игра престолов

iTunes

1+1

ИГРА 18+

pack

ВАЖНО

!!Акция!!

Alien_RageХит недели

RePack

Resident Evil 21
pack

RePack

Metro:Exodus

!!Акция!!

Alien_Rage

RePack

fifa19

RePack

Assassins Creed: Odyssey

RePack

NEED FOR SPEED™ PAYBACK

3 сезон

9 сезон

Бесстыжие 9 сезон

Все сериалы

все сериалы на PB.wtf

RePack

FAR CRY 5
Ребята, катастрофически не хватает 2730р. для оплаты серверов за МАЙ (всвязи с блокировками трафик упал в 3 раза), 1-2р., выручайте.
  

Кислотные детки / Sodium Babies (Бенуа Декайон, Жульен Декайон) [2009 г., ужасы, фэнтези, драма, HDRip, Любительский двухголосый " den904 & DeadSno"] pb.wtf

Кислотные детки через торрент pb.wtf

Размер: 1.37 GB | Добавлен: 4 года 9 мес. назад | Торрент скачан:80 раз
Скачать  

14-09-2014 16:55 Кислотные детки Скачать торрент  

Кислотные детки / Sodium Babies
Год выпуска: 2009
Страна: Франция / Les Films de la Lymphe
Жанр: ужасы, фэнтези, драма
Продолжительность: 01:33:47
Перевод: Любительский двухголосый (den904 & DeadSno)

Режиссер: Бенуа Декайон, Жульен Декайон

В ролях: Бенуа Декайон, Эдуард Одуен, Вирджиния Мико, Камиль Бертоми, Жюльен Джибер, Самюэль Галли, Джозеф Кутерье

Описание: Победитель многочисленных конкурсных программ, фильм Кислотные детки, повествует о вражде вампиров! Речь идет от лица вурдалака по прозвищу Мёртвый пёс, который находится в рабстве у Принца - главы вампиров. Мёртвым псом командует властный и безумный вампир Макс. Попав однажды в вампирскую ловушку, Пёс оказывается втянутым в жестокую вампирскую войну, в которой вынужден поставлять на убой людей дабы утолить жажду Принца вампиров. После 30ти лет изнурительной службы, Мёртвый Пёс приходит к решению, что пора освободиться от этого нескончаемого жестокого безумия...

Качество: HDRip
Формат: AVI
Видео кодек: XviD
Аудио кодек: AC3
Видео: MPEG4, XviD, 720x384 (1.875), 23.976 fps, 2 008 Kbps (0.303 bit/pixel)
Аудио: AC-3, 48.0 KHz, 2 ch, 192 Kbps, CBR


Общее
Полное имя : G:\кино\Sodium.Babies.2009.HDRip.avi
Формат : AVI
Формат/Информация : Audio Video Interleave
Размер файла : 1,37 Гбайт
Продолжительность : 1 ч. 33 м.
Общий поток : 2096 Кбит/сек
Программа кодирования : VirtualDubMod 1.5.10.3 | www.virtualdub-fr.org || (build 2550/release)
Библиотека кодирования : VirtualDubMod build 2550/release

Видео
Идентификатор : 0
Формат : MPEG-4 Visual
Профиль формата : Advanced Simple@L5
Параметр BVOP формата : 2
Параметр QPel формата : Нет
Параметр GMC формата : Без точки перехода
Параметр матрицы формата : Default (H.263)
Идентификатор кодека : XVID
Идентификатор кодека/Подсказка : XviD
Продолжительность : 1 ч. 33 м.
Битрейт : 2008 Кбит/сек
Ширина : 720 пикселей
Высота : 384 пикселя
Соотношение сторон : 1,85:1
Частота кадров : 23,976 кадра/сек
Цветовое пространство : YUV
Субдискретизация насыщенности : 4:2:0
Битовая глубина : 8 бит
Тип развёртки : Прогрессивная
Метод сжатия : С потерями
Бит/(Пиксели*Кадры) : 0.303
Размер потока : 1,32 Гбайт (96%)
Библиотека кодирования : XviD 1.2.1 (UTC 2008-12-04)

Аудио
Идентификатор : 1
Формат : AC-3
Формат/Информация : Audio Coding 3
Расширение режима : CM (complete main)
Параметр Endianness формата : Big
Идентификатор кодека : 2000
Продолжительность : 40 м.
Продолжительность оригинала : 19 м.
Вид битрейта : Постоянный
Битрейт : 192 Кбит/сек
Каналы : 2 канала
Расположение каналов : Front: L R
Частота : 48,0 КГц
Битовая глубина : 16 бит
Метод сжатия : С потерями
Размер потока : 55,1 Мбайт (4%)
Выравнивание : Разделение по промежуткам
Продолжительность промежутка : 204 мс. (4,88 видеокадров)
Время предзагрузки промежутка : 500 мс.

pb.wtf



Скачать Кислотные детки через торрент http://i65.fastpic.ru/big/2014/0914/8a/f2b500d2c2b73910435dd95d91bb2b8a.jpg Скачать фильм Кислотные детки через торрент бесплантно в хорошем качестве Описание: Победитель многочисленных конкурсных программ, фильм Кислотные детки, повествует о вражде вампиров! Речь идет от лица вурдалака ... 7 10 3
Торрент: Зарегистрирован [2014-09-14 16:55] · скачан: 80 раз
Статус: √ проверено
Размер: 1.37 GB
Как cкачать? Как скачать Кислотные детки через торрент | qTorrent


>> Регистрируемся здесь <<






Отзывы и комментарии о схеме читаем и пишем здесь: ---> Отзывы и комментарии о схеме

Новые благодарочки в телеграм довольных пользователей:
скриншот   скриншот   скриншот   скриншот   скриншот
    Дорогой пользователь! Огромная просьба, поблагодарите релизера, оцените раздачу и оставьте свои комментарий, если Вы скачали Кислотные детки через торрент бесплатно! Внесите свою лепту в развитие PiratBit!
    Комментировать посты могут только пользователи прошедшие не сложную регистрацию
    Показать сообщения:    

    Кислотные детки через торрент
    Скачать бесплатно Кислотные детки
    Кислотные детки скачать торрент
    Кислотные детки смотреть онлайн
    Cкачать фильм Кислотные детки бесплатно
    Кислотные детки скачать торрент в хорошем качестве
    Кислотные детки смотреть онлайн бесплатно в хорошем качестве


    Вы не можете начинать темы
    Вы не можете отвечать на сообщения
    Вы не можете редактировать свои сообщения
    Вы не можете удалять свои сообщения
    Вы не можете голосовать в опросах
    Вы не можете прикреплять файлы к сообщениям
    Вы можете скачивать файлы