Мега распродажа FORZA HORIZON 4 ULTIMATE+ВСЕ DLC+ОНЛАЙН всего за 499р. 349 руб. (супер цена). Внимание количество ограничено!!!

Лицензия

30

iTunes

мы

iTunes

1

1 сезон

Чернобыль

1 сезон

Ральф против интернета

MVO

Покемон. Детектив Пикачу

8 сезон

Игра престолов

iTunes

1+1

ИГРА 18+

pack

ВАЖНО

!!Акция!!

Alien_RageХит недели

RePack

Resident Evil 21
pack

RePack

Metro:Exodus

!!Акция!!

Alien_Rage

RePack

fifa19

RePack

Assassins Creed: Odyssey

RePack

NEED FOR SPEED™ PAYBACK

3 сезон

9 сезон

Бесстыжие 9 сезон

Все сериалы

все сериалы на PB.wtf

RePack

FAR CRY 5
Ребята, катастрофически не хватает 2730р. для оплаты серверов за МАЙ (всвязи с блокировками трафик упал в 3 раза), 1-2р., выручайте.
  

Стая / La horde (Янник Даан / Yannick Dahan, Бенжамен Роше / Benjamin Rocher) 2009, Франция, ужасы, боевик, триллер, HDRip, Профессиональный многоголосый] pb.wtf

Стая через торрент pb.wtf

Размер: 1.45 GB | Добавлен: 4 года 9 мес. назад | Торрент скачан:273 раза
Скачать  

15-09-2014 08:52 Стая Скачать торрент  

Стая / La horde

Год выпуска: 2009
Страна: Франция
Жанр: ужасы, боевик, триллер
Продолжительность: 01:41:39
Перевод: Профессиональный многоголосый
Субтитры: Отсутствует
Режиссер: Янник Даан / Yannick Dahan, Бенжамен Роше / Benjamin Rocher
В ролях:


Клод Перрон (Aurore), Жан-Пьер Мартен (Ouessem), Эрик Эбони (Adewale), Орельен Рекуан (Jimenez), Дуду Маста (Bola), Антуан Оппенхайм (Tony), Джо Престиа (José), Ив Пиньо (René), Адам Пенгсаванг (Le Tchèque), Себастьен Перез (Séb), Лорен Демианофф (Kim), Ален Фиглаж (Le concièrge)

Описание:
Север Парижа. Собираясь отомстить за убийство сослуживца безжалостной бандой, четыре полицейских пробираются в здание, служащее гангстерам штаб-квартирой. Замеченные и пойманные, офицеры готовятся к казни, как вдруг случается невообразимое: в дом врывается стая кровожадных плотоядных существ, жестоко нападая на всех и каждого. Полицейским и бандитам приходится объединить усилия в отчаянной схватке.

Рейтинг:

Качество: HDRip
Формат: AVI
Видео кодек:XviD
Аудио кодек:AC3
Видео: XviD, 720x304 (2.35:1), 1578 kbps, 23,976 fps, 0,301 bpp
Аудио №1: AC3 / 2.0 / 48 kHz / 224 kbps / 16 bit Russian
Аудио №2: AC3 / 2.0 / 48 kHz / 224 kbps / 16 bit Franсe


General
Complete name : D:\Users\_KaisiK_\Bitcomet\КИНО\Staya_.avi
Format : AVI
Format/Info : Audio Video Interleave
File size : 1.45 GiB
Duration : 1h 41mn
Overall bit rate : 2 041 Kbps
Movie name : Стая / La Horde
Director : vitalikmd
Writing application : VirtualDubModRus 1.5.10.2 (build 2542/release)
Writing library : VirtualDubMod build 2542/release
Comment : 10.05.2012

Video
ID : 0
Format : MPEG-4 Visual
Format profile : Advanced Simple@L5
Format settings, BVOP : 1
Format settings, QPel : No
Format settings, GMC : No warppoints
Format settings, Matrix : Default (MPEG)
Codec ID : XVID
Codec ID/Hint : XviD
Duration : 1h 41mn
Bit rate : 1 579 Kbps
Width : 720 pixels
Height : 304 pixels
Display aspect ratio : 2.35:1
Frame rate : 23.976 fps
Color space : YUV
Chroma subsampling : 4:2:0
Bit depth : 8 bits
Scan type : Progressive
Compression mode : Lossy
Bits/(Pixel*Frame) : 0.301
Stream size : 1.12 GiB (77%)
Writing library : XviD 1.2.1 (UTC 2008-12-04)

Audio #1
ID : 1
Format : AC-3
Format/Info : Audio Coding 3
Mode extension : CM (complete main)
Codec ID : 2000
Duration : 1h 41mn
Bit rate mode : Constant
Bit rate : 224 Kbps
Channel(s) : 2 channels
Channel positions : Front: L R
Sampling rate : 48.0 KHz
Bit depth : 16 bits
Compression mode : Lossy
Stream size : 163 MiB (11%)
Alignment : Aligned on interleaves
Interleave, duration : 42 ms (1.00 video frame)
Interleave, preload duration : 512 ms

Audio #2
ID : 2
Format : AC-3
Format/Info : Audio Coding 3
Mode extension : CM (complete main)
Codec ID : 2000
Duration : 1h 41mn
Bit rate mode : Constant
Bit rate : 224 Kbps
Channel(s) : 2 channels
Channel positions : Front: L R
Sampling rate : 48.0 KHz
Bit depth : 16 bits
Compression mode : Lossy
Stream size : 163 MiB (11%)
Alignment : Split accross interleaves
Interleave, duration : 42 ms (1.00 video frame)
Interleave, preload duration : 500 ms

[/code]
pb.wtf



Скачать Стая через торрент http://i4.imageban.ru/out/2014/09/15/c699af44d7f0f01741d26f63231865b3.jpg Скачать фильм Стая через торрент бесплантно в хорошем качестве Описание: Север Парижа. Собираясь отомстить за убийство сослуживца безжалостной бандой, четыре полицейских пробираются в здание, служащее ... 10 10 6
Торрент: Зарегистрирован [2014-09-15 08:52] · скачан: 273 раз
Статус: √ проверено
Размер: 1.45 GB
Как cкачать? Как скачать Стая через торрент | qTorrent


>> Регистрируемся здесь <<






Отзывы и комментарии о схеме читаем и пишем здесь: ---> Отзывы и комментарии о схеме

Новые благодарочки в телеграм довольных пользователей:
скриншот   скриншот   скриншот   скриншот   скриншот
    Дорогой пользователь! Огромная просьба, поблагодарите релизера, оцените раздачу и оставьте свои комментарий, если Вы скачали Стая через торрент бесплатно! Внесите свою лепту в развитие PiratBit!
    Комментировать посты могут только пользователи прошедшие не сложную регистрацию
    Показать сообщения:    

    Стая через торрент
    Скачать бесплатно Стая
    Стая скачать торрент
    Стая смотреть онлайн
    Cкачать фильм Стая бесплатно
    Стая скачать торрент в хорошем качестве
    Стая смотреть онлайн бесплатно в хорошем качестве


    Вы не можете начинать темы
    Вы не можете отвечать на сообщения
    Вы не можете редактировать свои сообщения
    Вы не можете удалять свои сообщения
    Вы не можете голосовать в опросах
    Вы не можете прикреплять файлы к сообщениям
    Вы можете скачивать файлы