Ссылка на приватное зеркало нашего сайта всего за 1$. Внимание количество ограничено!!!

2 сезон

iTunes

1 сезон

1

2 сезон

2 сезон

iTunes

1 сезон

RePack

30

Ultimate

ВАЖНО

ИГРА 18+

pack

RePack

MK11
pack

Забери бонус

RePack

jed

!!Акция!!

Alien_Rage

RePack

fifa19

RePack

Assassins Creed: Odyssey

RePack

NEED FOR SPEED™ PAYBACK

4 сезон

9 сезон

Бесстыжие 9 сезон

Все сериалы

все сериалы на PB.wtf

RePack

FAR CRY 5
  

Любовное письмо / Love Letter (Сюндзи Иваи) [1995г., драма, мелодрама, BDRip 720p] VO pb.wtf

Любовное письмо через торрент pb.wtf

Размер: 4.29 GB | Добавлен: 6 лет 2 мес. назад | Торрент скачан:7 раз
Скачать  

15-09-2014 12:00 Любовное письмо Скачать торрент  

Любовное письмо / Love Letter
Год выпуска: 1995
Страна: Япония
Жанр: драма, мелодрама
Продолжительность: 01:56:31
Перевод: Любительский одноголосый
Субтитры: Русские (Verrueckter Junge), английские

Режиссер: Сюндзи Иваи

В ролях: Михо Накаяма, Эцуси Тоёкава, Бунджаку Ан, Кацуюки Синохара, Мики Сакаи, Такаши Кашивабара, Кен Мицуйси, Емико Нагата, Каори Огури, Наоки Гото, Тошия Сакаи, Кэйити Судзуки

Описание: Вот уже два года прошло с тех пор, как жених Хироко трагически погиб в горах, но она всё не может забыть его. Находясь в гостях у его матери, из школьного альбома Хироко узнает адрес, по которому Ицуки проживал в родном городе, и решает отправить туда письмо, хотя знает, что дом тот давно снесли и теперь на его месте пролегает шоссе. И, к своему изумлению, Хироко получает ответ за подписью Ицуки...



Качество: BDRip 720p [Исходник -- Aldgernon (Кинозал] Сравнение с исходником
Формат: MKV
Видео кодек: H.264
Аудио кодек: AC3
Видео: MPEG-4 AVC, 1280х532, 4525 Kбит/с, 23.976 кадр/сек
Аудио 1: русский, AC3, 448 kbps, 2 ch, 48 kHz, [Любительский одноголосый, DeMon]
Аудио 2: японский, AC3, 192 kbps, 2 ch, 48 kHz, [Оригинал]
Общее
Уникальный идентификатор : 224284109069885897538115621816394512050 (0xA8BB8C54EBC2496EB117190A2242F6B2)
Полное имя : D:VideoLjubovnoe pismo.1995.BDRip.720p.mkv
Формат : Matroska
Версия формата : Version 4 / Version 2
Размер файла : 4,29 Гбайт
Продолжительность : 1 ч. 56 м.
Общий поток : 5270 Кбит/сек
Дата кодирования : UTC 2014-09-15 08:38:59
Программа кодирования : mkvmerge v6.9.1 ('Blue Panther') 64bit built on Apr 18 2014 18:23:38
Библиотека кодирования : libebml v1.3.0 + libmatroska v1.4.1

Видео
Идентификатор : 1
Формат : AVC
Формат/Информация : Advanced Video Codec
Профиль формата : High@L4.1
Параметр CABAC формата : Да
Параметр ReFrames формата : 9 кадров
Идентификатор кодека : V_MPEG4/ISO/AVC
Продолжительность : 1 ч. 56 м.
Битрейт : 4525 Кбит/сек
Ширина : 1280 пикселей
Высота : 532 пикселя
Соотношение сторон : 2,40:1
Режим частоты кадров : Постоянный
Частота кадров : 23,976 кадра/сек
Цветовое пространство : YUV
Субдискретизация насыщенности : 4:2:0
Битовая глубина : 8 бит
Тип развёртки : Прогрессивная
Бит/(Пиксели*Кадры) : 0.277
Размер потока : 3,68 Гбайт (86%)
Заголовок : BDRip -- STarankov
Библиотека кодирования : x264 core 142 r2431 ac76440
Настройки программы : cabac=1 / ref=9 / deblock=1:-1:-1 / analyse=0x3:0x113 / me=umh / subme=10 / psy=1 / psy_rd=1.00:0.15 / mixed_ref=1 / me_range=32 / chroma_me=1 / trellis=2 / 8x8dct=1 / cqm=0 / deadzone=21,11 / fast_pskip=0 / chroma_qp_offset=-3 / threads=6 / lookahead_threads=1 / sliced_threads=0 / nr=0 / decimate=1 / interlaced=0 / bluray_compat=0 / constrained_intra=0 / bframes=8 / b_pyramid=2 / b_adapt=2 / b_bias=0 / direct=1 / weightb=1 / open_gop=0 / weightp=2 / keyint=230 / keyint_min=23 / scenecut=40 / intra_refresh=0 / rc_lookahead=40 / rc=crf / mbtree=0 / crf=19.5 / qcomp=0.60 / qpmin=0 / qpmax=69 / qpstep=4 / vbv_maxrate=40000 / vbv_bufsize=50000 / crf_max=0.0 / nal_hrd=none / filler=0 / ip_ratio=1.40 / pb_ratio=1.30 / aq=1:1.00
Язык : Japanese
Default : Да
Forced : Нет

Аудио #1
Идентификатор : 2
Формат : AC-3
Формат/Информация : Audio Coding 3
Расширение режима : CM (complete main)
Параметр Endianness формата : Big
Идентификатор кодека : A_AC3
Продолжительность : 1 ч. 56 м.
Вид битрейта : Постоянный
Битрейт : 448 Кбит/сек
Каналы : 2 канала
Расположение каналов : Front: L R
Частота : 48,0 КГц
Битовая глубина : 16 бит
Метод сжатия : С потерями
Размер потока : 373 Мбайт (9%)
Заголовок : VO (DeMon, любительский одноголосый)
Язык : Russian
Default : Да
Forced : Нет

Аудио #2
Идентификатор : 3
Формат : AC-3
Формат/Информация : Audio Coding 3
Расширение режима : CM (complete main)
Параметр Endianness формата : Big
Идентификатор кодека : A_AC3
Продолжительность : 1 ч. 56 м.
Вид битрейта : Постоянный
Битрейт : 192 Кбит/сек
Каналы : 2 канала
Расположение каналов : Front: L R
Частота : 48,0 КГц
Битовая глубина : 16 бит
Метод сжатия : С потерями
Размер потока : 160 Мбайт (4%)
Заголовок : Original
Язык : Japanese
Default : Нет
Forced : Нет

Текст #1
Идентификатор : 4
Формат : UTF-8
Идентификатор кодека : S_TEXT/UTF8
Идентификатор кодека/Информация : UTF-8 Plain Text
Заголовок : русский (Verrueckter Junge)
Язык : Russian
Default : Нет
Forced : Нет

Текст #2
Идентификатор : 5
Формат : UTF-8
Идентификатор кодека : S_TEXT/UTF8
Идентификатор кодека/Информация : UTF-8 Plain Text
Заголовок : английский
Default : Нет
Forced : Нет

---[Information] [14.09.2014 17:02:21] raw [info]: 1280x532p 1:1 @ 24000/1001 fps (cfr)
---[Information] [14.09.2014 17:02:21] x264 [info]: using SAR=1/1
---[Information] [14.09.2014 17:02:21] x264 [info]: using cpu capabilities: MMX2 SSE2Fast SSSE3 SSE4.2
---[Information] [14.09.2014 17:02:21] x264 [info]: profile High, level 4.1
---[Information] [15.09.2014 1:29:24] x264 [info]: frame I:1338 Avg QP:18.66 size: 85712
---[Information] [15.09.2014 1:29:24] x264 [info]: frame P:29675 Avg QP:19.83 size: 45290
---[Information] [15.09.2014 1:29:24] x264 [info]: frame B:136608 Avg QP:21.65 size: 18925
---[Information] [15.09.2014 1:29:24] x264 [info]: consecutive B-frames: 1.2% 0.7% 2.4% 9.5% 12.2% 47.6% 11.7% 9.0% 5.7%
---[Information] [15.09.2014 1:29:24] x264 [info]: mb I I16..4: 8.2% 81.1% 10.7%
---[Information] [15.09.2014 1:29:24] x264 [info]: mb P I16..4: 0.4% 22.3% 2.0% P16..4: 33.2% 26.8% 12.3% 0.0% 0.0% skip: 3.0%
---[Information] [15.09.2014 1:29:24] x264 [info]: mb B I16..4: 0.0% 2.1% 0.1% B16..8: 47.1% 15.5% 4.4% direct: 7.5% skip:23.2% L0:47.0% L1:45.5% BI: 7.5%
---[Information] [15.09.2014 1:29:24] x264 [info]: 8x8 transform intra:89.8% inter:60.5%
---[Information] [15.09.2014 1:29:24] x264 [info]: coded y,uvDC,uvAC intra: 95.4% 87.1% 60.7% inter: 43.9% 34.0% 3.3%
---[Information] [15.09.2014 1:29:24] x264 [info]: i16 v,h,dc,p: 30% 9% 21% 40%
---[Information] [15.09.2014 1:29:24] x264 [info]: i8 v,h,dc,ddl,ddr,vr,hd,vl,hu: 12% 7% 13% 10% 13% 12% 11% 11% 12%
---[Information] [15.09.2014 1:29:24] x264 [info]: i4 v,h,dc,ddl,ddr,vr,hd,vl,hu: 45% 5% 5% 6% 9% 9% 8% 7% 7%
---[Information] [15.09.2014 1:29:24] x264 [info]: i8c dc,h,v,p: 42% 23% 20% 15%
---[Information] [15.09.2014 1:29:24] x264 [info]: Weighted P-Frames: Y:6.2% UV:3.9%
---[Information] [15.09.2014 1:29:24] x264 [info]: ref P L0: 39.3% 13.0% 20.7% 6.9% 6.8% 4.1% 4.4% 2.1% 2.4% 0.2% 0.0%
---[Information] [15.09.2014 1:29:24] x264 [info]: ref B L0: 65.0% 14.6% 7.9% 4.6% 3.2% 2.8% 1.4% 0.5%
---[Information] [15.09.2014 1:29:24] x264 [info]: ref B L1: 91.1% 8.9%
---[Information] [15.09.2014 1:29:24] x264 [info]: kb/s:4627.52
---[Information] [15.09.2014 1:29:24] encoded 167621 frames, 5.51 fps, 4627.52 kb/s
--[Information] [15.09.2014 1:29:25] Final statistics
---[Information] [15.09.2014 1:29:25] Constant Quality Mode: Quality 19 computed...
---[Information] [15.09.2014 1:29:25] Video Bitrate Obtained (approximate): 4629 kbit/s
--[Information] [15.09.2014 1:29:25] MediaInfo
---[Information] [15.09.2014 1:29:25] File: D:RipLjubovnoe pismo.1995.BDRipLjubovnoe pismo.1995.BDRip.720p.mkv
pb.wtf



Скачать Любовное письмо через торрент http://i66.fastpic.ru/big/2014/0915/dc/b96eeeaf30a720464b0a445a3a1fa8dc.jpg Скачать фильм Любовное письмо через торрент бесплантно в хорошем качестве Описание: Вот уже два года прошло с тех пор, как жених Хироко трагически погиб в горах, но она всё не может забыть его. Находясь в гостях у ... 10 10 2
Info! Золотая раздача, скачанное не засчитывается.
Торрент: Зарегистрирован [2014-09-15 12:00] · скачан: 7 раз
Статус: √ проверено
Размер: 4.29 GB
Как cкачать? Как скачать Любовное письмо через торрент | qTorrent

% Раздел Тема Автор DL S | L
Фильмы [HD 720p, 1080p] (Звук Cam, VO, DVO) [ 10.93 GB ] Любовное письмо / Love Letter [1995 BDRip 1080p] VO msltel Скачать
1 | 0

28-11-2019 20:33  

Отключить всю рекламу на сайте

15-09-2014 12:16 Любовное письмо Скачать торрент  

msltel, все одноголосные, двухголосные кидаем сюда Фильмы [HD 720p, 1080p] (Звук Cam, VO, DVO) (раздел)pb.wtf



    Дорогой пользователь! Огромная просьба, поблагодарите релизера, оцените раздачу и оставьте свои комментарий, если Вы скачали Любовное письмо через торрент бесплатно! Внесите свою лепту в развитие PiratBit!
    Комментировать посты могут только пользователи прошедшие не сложную регистрацию
    Показать сообщения:    

    Любовное письмо через торрент
    Скачать бесплатно Любовное письмо
    Любовное письмо скачать торрент
    Любовное письмо смотреть онлайн
    Cкачать фильм Любовное письмо бесплатно
    Любовное письмо скачать торрент в хорошем качестве
    Любовное письмо смотреть онлайн бесплатно в хорошем качестве


    Вы не можете начинать темы
    Вы не можете отвечать на сообщения
    Вы не можете редактировать свои сообщения
    Вы не можете удалять свои сообщения
    Вы не можете голосовать в опросах
    Вы не можете прикреплять файлы к сообщениям
    Вы можете скачивать файлы