2 сезон

iTunes

MVO

1

2 сезон

iTunes

iTunes

1 сезон

RePack

30

Новинка

ВАЖНО

ИГРА 18+

pack

RePack

MK11
pack

Легкие деньги

RePack

jed

RePack

fifa19

RePack

RDR2

RePack

NEED FOR SPEED™ PAYBACK

4 сезон

9 сезон

Бесстыжие 9 сезон

Все сериалы

все сериалы на PB.wtf

RePack

FAR CRY 5

Anonymous, добрый вечер, мы не успеваем собрать деньги на оплату серверов за декабрь и январь, помогите нам пожалуйста в это трудное время. В качестве благодарности мы отключим Вам всю рекламу на сайте (укажите свой ник в строку Ваше имя)!

×
  
Magnet ссылка

Обладая тобой / Having You (Сэм Хоар / Sam Hoare) 2013, Великобритания, драма, комедия, HDTVRip, Профессиональный многоголосый] pb.wtf

Обладая тобой через торрент pb.wtf

Размер: 1.37 GB | Добавлен: 6 лет 4 мес. назад | Торрент скачан:200 раз
Скачать  

15-09-2014 13:16 Обладая тобой Скачать торрент  

Обладая тобой / Having You «Life is never easy, but for Jack it's about to get a whole lot harder»
Год выпуска: 2013
Страна: Великобритания
Жанр: драма, комедия
Продолжительность: 01:32:36
Перевод: Профессиональный многоголосый [SDI Media]
Субтитры: Отсутствует
Режиссер: Сэм Хоар / Sam Hoare
В ролях:


Анна Фрил (Anna), Ромола Гарай (Camilla), Эндрю Бачан (Jack), Филип Дэвис (Peter), Исаак Эндрюс (Phoenix), Стивен Кри (Paul), Гарри Хадден-Патон (Barry), Хэтти Морахэн (Lucy), Graham Cawte (Fairground Customer), Крис Коулин (Doctor), Кристиан Диксон (The Traffic Warden), Джон Хеффернан (Dr. Matthew Jenson)

Описание:
Молодая пара Джек и Анна уже долгое время вместе. И тут Джек решил сделать предложение своей возлюбленной. Девушка конечно же соглашается, и теперь Джек счастлив, при этом ему не важно, что у них никогда не будет детей, так как его девушка не может иметь детей. Но однажды их жизнь кардинально меняется. А причиной тому стало появление в их жизни семилетнего сына Джека - Феникса, с которым он раньше практически не общался. В итоге героям предстоит построить новые совместные отношения, но пока это у них плохо выходит...

Рейтинг:

Качество: HDTVRip
Формат: AVI
Видео кодек:XviD
Аудио кодек:AC3
Видео: XviD, 720x304 (2.35:1), 1913 kbps, 25 fps, 0,350 bpp
Аудио: AC3 / 2.0 / 48 kHz / 192 kbps / 16 bit

General
Complete name : D:\Users\_KaisiK_\Bitcomet\КИНО\Obladay.toboj.2013.P.HDTVRip.avi
Format : AVI
Format/Info : Audio Video Interleave
File size : 1.37 GiB
Duration : 1h 32mn
Overall bit rate : 2 115 Kbps
Writing application : VirtualDubMod 1.5.10.2 (build 2540/release)
Writing library : VirtualDubMod build 2540/release

Video
ID : 0
Format : MPEG-4 Visual
Format profile : Advanced Simple@L5
Format settings, BVOP : 2
Format settings, QPel : No
Format settings, GMC : No warppoints
Format settings, Matrix : Default (MPEG)
Codec ID : XVID
Codec ID/Hint : XviD
Duration : 1h 32mn
Bit rate : 1 913 Kbps
Width : 720 pixels
Height : 304 pixels
Display aspect ratio : 2.35:1
Frame rate : 25.000 fps
Color space : YUV
Chroma subsampling : 4:2:0
Bit depth : 8 bits
Scan type : Progressive
Compression mode : Lossy
Bits/(Pixel*Frame) : 0.350
Stream size : 1.24 GiB (90%)
Writing library : XviD 1.2.1 (UTC 2008-12-04)

Audio
ID : 1
Format : AC-3
Format/Info : Audio Coding 3
Mode extension : CM (complete main)
Codec ID : 2000
Duration : 1h 32mn
Bit rate mode : Constant
Bit rate : 192 Kbps
Channel(s) : 2 channels
Channel positions : Front: L R
Sampling rate : 48.0 KHz
Bit depth : 16 bits
Compression mode : Lossy
Stream size : 127 MiB (9%)
Alignment : Split accross interleaves
Interleave, duration : 40 ms (1.00 video frame)
Interleave, preload duration : 500 ms

[/code]
pb.wtf



Скачать Обладая тобой через торрент http://i4.imageban.ru/out/2014/09/15/dc7843bb087c24b1f52d6b23d9b25ad7.jpg Скачать фильм Обладая тобой через торрент бесплантно в хорошем качестве Описание: Молодая пара Джек и Анна уже долгое время вместе. И тут Джек решил сделать предложение своей возлюбленной. Девушка конечно же ... 10 10 9
Торрент: Зарегистрирован [2014-09-15 13:16] · скачан: 200 раз
Статус: √ проверено
Размер: 1.37 GB
Как cкачать? Как скачать Обладая тобой через торрент | UTorrent

28-11-2019 20:33  

Отключить всю рекламу на сайте

    Дорогой пользователь! Огромная просьба, поблагодарите релизера, оцените раздачу и оставьте свои комментарий, если Вы скачали Обладая тобой через торрент бесплатно! Внесите свою лепту в развитие PiratBit!
    Комментировать посты могут только пользователи прошедшие не сложную регистрацию
    Показать сообщения:    

    Обладая тобой через торрент
    Скачать бесплатно Обладая тобой
    Обладая тобой скачать торрент
    Обладая тобой смотреть онлайн
    Cкачать фильм Обладая тобой бесплатно
    Обладая тобой скачать торрент в хорошем качестве
    Обладая тобой смотреть онлайн бесплатно в хорошем качестве


    Вы не можете начинать темы
    Вы не можете отвечать на сообщения
    Вы не можете редактировать свои сообщения
    Вы не можете удалять свои сообщения
    Вы не можете голосовать в опросах
    Вы не можете прикреплять файлы к сообщениям
    Вы можете скачивать файлы