Ссылка на приватное зеркало всего за 1$. Внимание количество ограничено!!!

iTunes

iTunes

iTunes

1

iTunes

iTunes

iTunes

iTunes

iTunes

30
pack

$ от Little Big

ВАЖНО

!!Акция!!

Alien_RageХит недели

RePack

Resident Evil 21

ИГРА 18+

pack

RePack

jed

!!Акция!!

Alien_Rage

RePack

fifa19

RePack

Assassins Creed: Odyssey

RePack

NEED FOR SPEED™ PAYBACK

4 сезон

9 сезон

Бесстыжие 9 сезон

Все сериалы

все сериалы на PB.wtf

RePack

FAR CRY 5
  

Жестокая / Ferocious (Роберт Каффли / Robert Cuffley) [2013, Канада, триллер, WEB-DL 720p, Любительский многоголосый] pb.wtf

Жестокая через торрент pb.wtf

Размер: 2.88 GB | Добавлен: 5 лет 9 мес. назад | Торрент скачан:84 раза
Скачать  

15-09-2014 14:19 Жестокая Скачать торрент  

Жестокая / Ferocious«Fame Can Turn On You»
Год выпуска: 2013
Страна: Канада
Жанр: триллер
Продолжительность: 01:33:17
Перевод: Любительский многоголосый (ненорматив) den904, DeadSno & Victory-Films
Субтитры: Английские
Режиссер: Роберт Каффли / Robert Cuffley
В ролях:


Аманда Крю (Leigh Parrish), Майкл Эклунд (Eric), Кэти Боланд (Tess), Стивен Хусар (Steve Sherwood), Ким Коутс (Sal), Дастин Миллиган (Callum Beck), Эми Матисио (Yolanda), Kristen Holfeuer (Claire), Шеннон Джардин (Prostitute #1), Кристина Хьюз (Prostitute #2), Джоди Питерс (Paramedic), Брок Эндрюс (в титрах не указан)

Описание:
Сюжет расскажет о телевизионной актрисе, которая по неосторожности предалась любовным утехам в общественном месте. Но в этом было бы лишь полбеды, если не камеры видеонаблюдения, которые запечатлели главную героиню за непристойным занятием. Чтобы сохранить свою репутацию, девушка должна добыть компрометирующую ее запись и ради этого она пойдет на все.

Рейтинг:

Качество: WEB-DL 720p
Формат: MKV
Видео кодек:AVC
Аудио кодек:AC3
Видео: AVC, 1280x712 (16:9), 3943 kbps, 23,976 fps, 0,180 bpp
Аудио №1: русский / AC3 / 2.0 / 48 kHz / 192 kbps / 16 bit
Аудио №2: английский / AC3 / 2.0 / 48 kHz / 192 kbps / 16 bit

General
Unique ID : 245363052887417746100140908408824851588 (0xB8973480230F230F94042369C02EEC84)
Complete name : D:\Users\_KaisiK_\Bitcomet\КИНО\Ferocious.2013.WEB-DL.720p.CINEMANIA.mkv
Format : Matroska
Format version : Version 4 / Version 2
File size : 2.88 GiB
Duration : 1h 33mn
Overall bit rate : 4 416 Kbps
Movie name : Release Group CINEMANIA
Encoded date : UTC 2014-09-12 19:13:37
Writing application : mkvmerge v7.1.0 ('Good Love') 64bit built on Jul 27 2014 13:06:55
Writing library : libebml v1.3.0 + libmatroska v1.4.1

Video
ID : 1
Format : AVC
Format/Info : Advanced Video Codec
Format profile : High@L3.1
Format settings, CABAC : No
Format settings, ReFrames : 2 frames
Codec ID : V_MPEG4/ISO/AVC
Duration : 1h 33mn
Bit rate : 3 944 Kbps
Width : 1 280 pixels
Height : 712 pixels
Display aspect ratio : 16:9
Frame rate : 23.976 fps
Color space : YUV
Chroma subsampling : 4:2:0
Bit depth : 8 bits
Scan type : Progressive
Bits/(Pixel*Frame) : 0.180
Stream size : 2.57 GiB (89%)
Title : Release Group CINEMANIA
Language : English
Default : Yes
Forced : No
Color primaries : BT.709-5, BT.1361, IEC 61966-2-4, SMPTE RP177
Transfer characteristics : BT.709-5, BT.1361
Matrix coefficients : BT.709-5, BT.1361, IEC 61966-2-4 709, SMPTE RP177

Audio #1
ID : 2
Format : AC-3
Format/Info : Audio Coding 3
Mode extension : CM (complete main)
Codec ID : A_AC3
Duration : 1h 33mn
Bit rate mode : Constant
Bit rate : 192 Kbps
Channel(s) : 2 channels
Channel positions : Front: L R
Sampling rate : 48.0 KHz
Bit depth : 16 bits
Compression mode : Lossy
Stream size : 128 MiB (4%)
Title : Влад - Снежинка - Victory-Films
Language : Russian
Default : Yes
Forced : Yes

Audio #2
ID : 3
Format : AC-3
Format/Info : Audio Coding 3
Mode extension : CM (complete main)
Codec ID : A_AC3
Duration : 1h 33mn
Bit rate mode : Constant
Bit rate : 192 Kbps
Channel(s) : 2 channels
Channel positions : Front: L R
Sampling rate : 48.0 KHz
Bit depth : 16 bits
Compression mode : Lossy
Stream size : 128 MiB (4%)
Language : English
Default : No
Forced : No

Text
ID : 4
Format : UTF-8
Codec ID : S_TEXT/UTF8
Codec ID/Info : UTF-8 Plain Text
Language : English
Default : No
Forced : No

[/code]
pb.wtf



Скачать Жестокая через торрент http://i4.imageban.ru/out/2014/09/15/91a322c54c23cc8063cc7f0f690e2b70.jpg Скачать фильм Жестокая через торрент бесплантно в хорошем качестве Описание: Сюжет расскажет о телевизионной актрисе, которая по неосторожности предалась любовным утехам в общественном месте. Но в этом было ... 10 10 8
Торрент: Зарегистрирован [2014-09-15 14:19] · скачан: 84 раз
Статус: T временная
Размер: 2.88 GB
Как cкачать? Как скачать Жестокая через торрент | qTorrent



Последний раз редактировалось: _KaisiK_ (2014-12-11 11:51), всего редактировалось 3 раз(а)

28-11-2019 20:33  

Отключить всю рекламу на сайте

    Дорогой пользователь! Огромная просьба, поблагодарите релизера, оцените раздачу и оставьте свои комментарий, если Вы скачали Жестокая через торрент бесплатно! Внесите свою лепту в развитие PiratBit!
    Комментировать посты могут только пользователи прошедшие не сложную регистрацию
    Показать сообщения:    

    Жестокая через торрент
    Скачать бесплатно Жестокая
    Жестокая скачать торрент
    Жестокая смотреть онлайн
    Cкачать фильм Жестокая бесплатно
    Жестокая скачать торрент в хорошем качестве
    Жестокая смотреть онлайн бесплатно в хорошем качестве


    Вы не можете начинать темы
    Вы не можете отвечать на сообщения
    Вы не можете редактировать свои сообщения
    Вы не можете удалять свои сообщения
    Вы не можете голосовать в опросах
    Вы не можете прикреплять файлы к сообщениям
    Вы можете скачивать файлы