Всегда рабочее зеркало просто перед .vidak.icu напиши любое слово или цифру, Пример http://c8f.vidak.icu

>

7.4

iTunes

7.4

2 сезон

9.4

1 сезон

1

7.4

2 сезон

7.2

iTunes

6.0

MVO

13

6.1

iTunes

8.3

Пиратка

30

ULTIMATE

pack

9.9

Лицензия

ВАЖНО

ИГРА 18+

pack

7.3

RePack

MK11

7.7

RePack

jed

7.8

RePack

fifa19

8.5

RePack

RDR2

RePack

NEED FOR SPEED™ PAYBACK

1 сезон

9 сезон

Бесстыжие 9 сезон

Все сериалы

все сериалы на PB.wtf

RePack

FAR CRY 5

Anonymous, доброй ночи, мы катастрофически не успеваем собрать деньги на оплату серверов, помогите нам пожалуйста 5,10,15р., для нас важна любая помощь . В качестве благодарности мы отключим Вам всю рекламу на сайте (укажите свой ник в строку Ваше имя)!

×
  
Magnet ссылка

Точка R / R-Point (Су-Чанг Куенг) [2004 г., ужасы, боевик, триллер, драма, военный, BDRip 1080p] AVO pb.wtf

Точка R через торрент pb.wtf

Размер: 14.41 GB | Добавлен: 7 лет 4 мес. назад | Торрент скачан:40 раз
Смотреть онлайн Точка R | Скачать    Ребята, помогите собрать деньги на оплату серверов!!!

15-09-2014 14:57 Точка R Скачать торрент  

Точка R / R-Point
Год выпуска: 2004
Страна: Южная Корея
Жанр: ужасы, боевик, триллер, драма, военный
Продолжительность: 01:47:22
Перевод: Авторский

Режиссер: Су-Чанг Куенг

В ролях: Сон Гён Ли, Чой Таен-ин, Джин Чанг-рок, Янг Ёунг-со, Вон-Санг Чоок, Син-Гуин Парк, Джин Хо, Джох Бунг-хон, Ли Джае-пил, Джён-донг, Ю-бонг Ги

Описание: 1974 год. Война во Вьетнаме. Отряд спецназовцев, посланный на задание в самое сердце вьетнамских джунглей пропадает без вести. Через полгода на военной базе радист ловит позывные этой группы и просьбу о помощи. Командование собирает группу из 10-ти профессионалов и забрасывает её в джунгли. Цель коммандос — найти пропавший отряд и выяснить, что с ним произошло...



Качество: BDRip 1080p [Исходник -- Diablo (HDClub)] Сравнение с исходником
Формат: MKV
Видео кодек: H.264
Аудио кодек: AC3, DTS
Видео: MPEG-4 AVC, 1852x1010, 17100 kbps, 29,970 кадра/сек
Аудио 1: русский, AC3, 192 kbps, 2 ch, 48 kHz [Авторский, Сергей Кузнецов]
Аудио 2: корейский, DTS, 1509 kbps, 6 ch, 48 kHz [Оригинал]
Общее
Уникальный идентификатор : 182967180673836169791045966209139639029 (0x89A6327C5A844A31BAEB23BAE90C82F5)
Полное имя : D:VideoR-Point.2004.BDRip.1080p.mkv
Формат : Matroska
Версия формата : Version 4 / Version 2
Размер файла : 14,4 Гбайт
Продолжительность : 1 ч. 47 м.
Общий поток : 19,2 Мбит/сек
Дата кодирования : UTC 2014-09-02 07:41:29
Программа кодирования : mkvmerge v6.9.1 ('Blue Panther') 64bit built on Apr 18 2014 18:23:38
Библиотека кодирования : libebml v1.3.0 + libmatroska v1.4.1

Видео
Идентификатор : 1
Формат : AVC
Формат/Информация : Advanced Video Codec
Профиль формата : High@L4.1
Параметр CABAC формата : Да
Параметр ReFrames формата : 4 кадра
Идентификатор кодека : V_MPEG4/ISO/AVC
Продолжительность : 1 ч. 47 м.
Битрейт : 17,1 Мбит/сек
Ширина : 1852 пикселя
Высота : 1010 пикселей
Соотношение сторон : 1,85:1
Режим частоты кадров : Постоянный
Частота кадров : 29,970 кадров/сек
Цветовое пространство : YUV
Субдискретизация насыщенности : 4:2:0
Битовая глубина : 8 бит
Тип развёртки : Прогрессивная
Бит/(Пиксели*Кадры) : 0.306
Размер потока : 12,8 Гбайт (89%)
Заголовок : BDRip -- STarankov
Библиотека кодирования : x264 core 142 r2431 ac76440
Настройки программы : cabac=1 / ref=4 / deblock=1:-1:-1 / analyse=0x3:0x113 / me=umh / subme=10 / psy=1 / psy_rd=1.00:0.15 / mixed_ref=1 / me_range=32 / chroma_me=1 / trellis=2 / 8x8dct=1 / cqm=0 / deadzone=21,11 / fast_pskip=0 / chroma_qp_offset=-3 / threads=6 / lookahead_threads=1 / sliced_threads=0 / nr=0 / decimate=1 / interlaced=0 / bluray_compat=0 / constrained_intra=0 / bframes=8 / b_pyramid=2 / b_adapt=2 / b_bias=0 / direct=1 / weightb=1 / open_gop=0 / weightp=2 / keyint=288 / keyint_min=28 / scenecut=40 / intra_refresh=0 / rc_lookahead=40 / rc=crf / mbtree=0 / crf=18.5 / qcomp=0.60 / qpmin=0 / qpmax=69 / qpstep=4 / vbv_maxrate=40000 / vbv_bufsize=50000 / crf_max=0.0 / nal_hrd=none / filler=0 / ip_ratio=1.40 / pb_ratio=1.30 / aq=1:1.00
Язык : Korean
Default : Да
Forced : Нет

Аудио #1
Идентификатор : 2
Формат : AC-3
Формат/Информация : Audio Coding 3
Расширение режима : CM (complete main)
Параметр Endianness формата : Big
Идентификатор кодека : A_AC3
Продолжительность : 1 ч. 47 м.
Вид битрейта : Постоянный
Битрейт : 192 Кбит/сек
Каналы : 2 канала
Расположение каналов : Front: L R
Частота : 48,0 КГц
Битовая глубина : 16 бит
Метод сжатия : С потерями
Размер потока : 147 Мбайт (1%)
Заголовок : AVO (Сергей Кузнецов)
Язык : Russian
Default : Да
Forced : Нет

Аудио #2
Идентификатор : 3
Формат : DTS
Формат/Информация : Digital Theater Systems
Режим : 16
Параметр Endianness формата : Big
Идентификатор кодека : A_DTS
Продолжительность : 1 ч. 47 м.
Вид битрейта : Постоянный
Битрейт : 1509 Кбит/сек
Каналы : 6 каналов
Расположение каналов : Front: L C R, Side: L R, LFE
Частота : 48,0 КГц
Битовая глубина : 16 бит
Метод сжатия : С потерями
Размер потока : 1,13 Гбайт (8%)
Заголовок : Original
Язык : Korean
Default : Нет
Forced : Нет

---[Information] [30.08.2014 23:30:02] raw [info]: 1852x1010p 1:1 @ 30000/1001 fps (cfr)
---[Information] [30.08.2014 23:30:02] x264 [info]: using SAR=1/1
---[Information] [30.08.2014 23:30:02] x264 [info]: using cpu capabilities: MMX2 SSE2Fast SSSE3 SSE4.2
---[Information] [30.08.2014 23:30:02] x264 [info]: profile High, level 4.1
---[Information] [31.08.2014 15:11:24] x264 [info]: frame I:1009 Avg QP:19.29 size:181742
---[Information] [31.08.2014 15:11:24] x264 [info]: frame P:40510 Avg QP:20.63 size:127475
---[Information] [31.08.2014 15:11:24] x264 [info]: frame B:151545 Avg QP:22.96 size: 57747
---[Information] [31.08.2014 15:11:24] x264 [info]: consecutive B-frames: 1.2% 1.7% 4.5% 12.4% 56.1% 14.7% 4.2% 0.9% 4.3%
---[Information] [31.08.2014 15:11:24] x264 [info]: mb I I16..4: 6.7% 83.6% 9.7%
---[Information] [31.08.2014 15:11:24] x264 [info]: mb P I16..4: 1.6% 24.1% 2.8% P16..4: 31.1% 25.5% 9.6% 0.0% 0.0% skip: 5.4%
---[Information] [31.08.2014 15:11:24] x264 [info]: mb B I16..4: 0.2% 3.9% 0.4% B16..8: 43.7% 15.4% 3.7% direct:13.6% skip:19.1% L0:42.4% L1:42.3% BI:15.3%
---[Information] [31.08.2014 15:11:24] x264 [info]: 8x8 transform intra:85.1% inter:64.7%
---[Information] [31.08.2014 15:11:24] x264 [info]: coded y,uvDC,uvAC intra: 90.3% 61.8% 18.1% inter: 53.7% 22.6% 0.8%
---[Information] [31.08.2014 15:11:24] x264 [info]: i16 v,h,dc,p: 43% 28% 21% 7%
---[Information] [31.08.2014 15:11:24] x264 [info]: i8 v,h,dc,ddl,ddr,vr,hd,vl,hu: 11% 9% 13% 8% 11% 11% 11% 11% 15%
---[Information] [31.08.2014 15:11:24] x264 [info]: i4 v,h,dc,ddl,ddr,vr,hd,vl,hu: 15% 39% 5% 4% 7% 7% 8% 6% 10%
---[Information] [31.08.2014 15:11:24] x264 [info]: i8c dc,h,v,p: 35% 34% 21% 10%
---[Information] [31.08.2014 15:11:24] x264 [info]: Weighted P-Frames: Y:11.3% UV:3.2%
---[Information] [31.08.2014 15:11:24] x264 [info]: ref P L0: 46.3% 11.3% 25.1% 15.3% 2.0% 0.1%
---[Information] [31.08.2014 15:11:24] x264 [info]: ref B L0: 80.8% 14.4% 4.8%
---[Information] [31.08.2014 15:11:24] x264 [info]: ref B L1: 90.3% 9.7%
---[Information] [31.08.2014 15:11:24] x264 [info]: kb/s:17508.64
---[Information] [31.08.2014 15:11:24] encoded 193064 frames, 3.42 fps, 17508.64 kb/s
--[Information] [31.08.2014 15:11:27] Final statistics
---[Information] [31.08.2014 15:11:27] Constant Quality Mode: Quality 18 computed...
---[Information] [31.08.2014 15:11:27] Video Bitrate Obtained (approximate): 17510 kbit/s
--[Information] [31.08.2014 15:11:27] MediaInfo
---[Information] [31.08.2014 15:11:27] File: D:RipR-Point.2004.BDRipR-Point.2004.BDRip.1080p.mkv
pb.wtf



Скачать Точка R через торрент http://i63.fastpic.ru/big/2014/0915/26/1ffdcc0519a65b4f7922d912e2056726.jpg Скачать, смотреть онлайн Точка R бесплантно в хорошем качестве Описание: 1974 год. Война во Вьетнаме. Отряд спецназовцев, посланный на задание в самое сердце вьетнамских джунглей пропадает без вести. ... 10 10 3
Торрент: Зарегистрирован [2014-09-15 14:57] · скачан: 40 раз
Статус: √ проверено
Размер: 14.41 GB
Как cкачать? Как скачать Точка R через торрент | UTorrent

% Раздел Тема Автор DL S | L
Фильмы с авторской озвучкой [ 6.44 GB ] Точка R / R-Point [2004 военный BDRip 720p] AVO msltel Скачать
1 | 0

28-11-2019 20:33  

Отключить всю рекламу на сайте

    Дорогой пользователь! Огромная просьба, поблагодарите релизера, оцените раздачу и оставьте свои комментарий, если Вы скачали Точка R через торрент бесплатно!
    Комментировать посты могут только пользователи прошедшие не сложную регистрацию
    Показать сообщения:    

    Точка R через торрент
    Скачать бесплатно Точка R
    Точка R скачать торрент
    Точка R смотреть онлайн
    Cкачать фильм Точка R бесплатно
    Точка R скачать торрент в хорошем качестве
    Точка R смотреть онлайн бесплатно в хорошем качестве


    Вы не можете начинать темы
    Вы не можете отвечать на сообщения
    Вы не можете редактировать свои сообщения
    Вы не можете удалять свои сообщения
    Вы не можете голосовать в опросах
    Вы не можете прикреплять файлы к сообщениям
    Вы можете скачивать файлы