Ссылка на приватное зеркало нашего сайта всего за 1$. Внимание количество ограничено!!!

2 сезон

iTunes

1 сезон

1

iTunes

iTunes

iTunes

1 сезон

RePack

30

ИГРА 18+

pack

ВАЖНО

!!Акция!!

Alien_RageХит недели

RePack

MK11
pack

Забери бонус

RePack

jed

!!Акция!!

Alien_Rage

RePack

fifa19

RePack

Assassins Creed: Odyssey

RePack

NEED FOR SPEED™ PAYBACK

4 сезон

9 сезон

Бесстыжие 9 сезон

Все сериалы

все сериалы на PB.wtf

RePack

FAR CRY 5
  

Гамбит / Gambit (Майкл Хоффман / Michael Hoffman) 2012, США, комедия, криминал, BDRip 1080p, Дубляж - Лицензия / iTunes] pb.wtf

Гамбит через торрент pb.wtf

Размер: 6.76 GB | Добавлен: 6 лет 1 мес. назад | Торрент скачан:147 раз
Скачать  

15-09-2014 15:06 Гамбит Скачать торрент  

Гамбит / Gambit«Искусная подделка. Идеальный план»
Год выпуска: 2012
Страна: США
Жанр: комедия, криминал
Продолжительность: 01:29:10
Перевод: Дубляж - [Лицензия / iTunes]
Субтитры: Английские
Режиссер: Майкл Хоффман / Michael Hoffman
В ролях:


Колин Фёрт (Harry Deane), Кэмерон Диаз (PJ Puznowski), Алан Рикман (Lionel Shahbandar), Том Кортни (The Major), Стэнли Туччи (Martin Zaidenweber), Майк Ноубл (Crouch the Gunboy), Броди Росс (Shabandar's Shoot Servant), Александр Макквин (Mr. Dunlop), Джо Берримен (Gas Station Cashier), Ральф Дж. Олдермен (Rodeo PA Man), Терри Паркс (Cowboy #1 - Merle), Расс Диллен (Cowboy #2)

Описание:
История лондонского любителя искусств, задумавшего обмануть богатого коллекционера и заставить его купить фальшивую картину Моне. Для этого он договаривается с разбитной девахой из Техаса. Героиня не имеет никакого отношения к искусству - она работает на родео. Однако она будет выдавать себя за женщину, чей дедушка раздобыл картину в конце Второй мировой войны.

Рейтинг:

MPAA: PG-13 - Детям до 13 лет просмотр не желателен
Качество: BDRip 1080p
Формат: MKV
Видео кодек:AVC
Аудио кодек:AC3, DTS
Видео: AVC, 1920x816 (2.35:1), 8966 kbps, 23,976 fps, 0,239 bpp
Аудио №1: русский / AC3 / 5.1 / 48 kHz / 384 kbps / 16 bit
Аудио №2: английский / DTS / 5.1 / 48 kHz / 1510 kbps / 24 bit


General
Unique ID : 247961126607889077390758329554754483852 (0xBA8B936CBA74894F9665C2CEFF4A368C)
Complete name : D:\Users\_KaisiK_\Bitcomet\КИНО\Gambit.2012.BDRip(1080p)x264-CHD.mkv
Format : Matroska
Format version : Version 4 / Version 2
File size : 6.76 GiB
Duration : 1h 29mn
Overall bit rate : 10.9 Mbps
Encoded date : UTC 2014-09-14 15:05:57
Writing application : mkvmerge v6.1.0 ('Old Devil') built on Mar 4 2013 09:10:42
Writing library : libebml v1.3.0 + libmatroska v1.4.0

Video
ID : 1
Format : AVC
Format/Info : Advanced Video Codec
Format profile : High@L4.1
Format settings, CABAC : Yes
Format settings, ReFrames : 5 frames
Codec ID : V_MPEG4/ISO/AVC
Duration : 1h 29mn
Bit rate : 8 966 Kbps
Width : 1 920 pixels
Height : 816 pixels
Display aspect ratio : 2.35:1
Frame rate : 23.976 fps
Color space : YUV
Chroma subsampling : 4:2:0
Bit depth : 8 bits
Scan type : Progressive
Bits/(Pixel*Frame) : 0.239
Stream size : 5.45 GiB (81%)
Title : CHD
Writing library : x264 core 125 r2208 d9d2288
Encoding settings : cabac=1 / ref=5 / deblock=1:-3:-3 / analyse=0x3:0x113 / me=umh / subme=10 / psy=1 / psy_rd=1.00:0.05 / mixed_ref=1 / me_range=32 / chroma_me=1 / trellis=2 / 8x8dct=1 / cqm=0 / deadzone=21,11 / fast_pskip=0 / chroma_qp_offset=-2 / threads=8 / lookahead_threads=1 / sliced_threads=0 / nr=0 / decimate=1 / interlaced=0 / bluray_compat=0 / constrained_intra=0 / bframes=5 / b_pyramid=2 / b_adapt=2 / b_bias=0 / direct=3 / weightb=1 / open_gop=0 / weightp=2 / keyint=250 / keyint_min=23 / scenecut=40 / intra_refresh=0 / rc=2pass / mbtree=0 / bitrate=8966 / ratetol=1.0 / qcomp=0.70 / qpmin=0 / qpmax=69 / qpstep=4 / cplxblur=20.0 / qblur=0.5 / ip_ratio=1.40 / pb_ratio=1.30 / aq=2:0.90
Language : English
Default : No
Forced : No

Audio #1
ID : 2
Format : AC-3
Format/Info : Audio Coding 3
Mode extension : CM (complete main)
Codec ID : A_AC3
Duration : 1h 29mn
Bit rate mode : Constant
Bit rate : 384 Kbps
Channel(s) : 6 channels
Channel positions : Front: L C R, Side: L R, LFE
Sampling rate : 48.0 KHz
Bit depth : 16 bits
Compression mode : Lossy
Stream size : 245 MiB (4%)
Title : Дублированное [лицензия]
Language : Russian
Default : Yes
Forced : No

Audio #2
ID : 3
Format : DTS
Format/Info : Digital Theater Systems
Codec ID : A_DTS
Duration : 1h 29mn
Bit rate mode : Constant
Bit rate : 1 510 Kbps
Channel(s) : 6 channels
Channel positions : Front: L C R, Side: L R, LFE
Sampling rate : 48.0 KHz
Bit depth : 24 bits
Compression mode : Lossy
Stream size : 963 MiB (14%)
Title : Original
Language : English
Default : No
Forced : No

Text
ID : 4
Format : UTF-8
Codec ID : S_TEXT/UTF8
Codec ID/Info : UTF-8 Plain Text
Language : English
Default : No
Forced : No

Menu
00:00:00.000 : en:00:00:00.000
00:06:52.162 : en:00:06:52.162
00:14:35.291 : en:00:14:35.291
00:21:59.860 : en:00:21:59.860
00:30:34.791 : en:00:30:34.791
00:36:29.062 : en:00:36:29.062
00:44:29.000 : en:00:44:29.000
00:52:37.738 : en:00:52:37.738
01:02:10.018 : en:01:02:10.018
01:11:15.938 : en:01:11:15.938
01:18:32.166 : en:01:18:32.166
01:23:34.009 : en:01:23:34.009

[/code]
pb.wtf



Скачать Гамбит через торрент http://i4.imageban.ru/out/2014/09/15/876a0f3a28207c03ed569c1733be88e3.jpg Скачать фильм Гамбит через торрент бесплантно в хорошем качестве Описание: История лондонского любителя искусств, задумавшего обмануть богатого коллекционера и заставить его купить фальшивую картину Моне. ... 10 10 9
Info! Золотая раздача, скачанное не засчитывается.
Торрент: Зарегистрирован [2014-09-15 15:06] · скачан: 147 раз
Статус: √ проверено
Размер: 6.76 GB
Как cкачать? Как скачать Гамбит через торрент | qTorrent

28-11-2019 20:33  

Отключить всю рекламу на сайте

    Дорогой пользователь! Огромная просьба, поблагодарите релизера, оцените раздачу и оставьте свои комментарий, если Вы скачали Гамбит через торрент бесплатно! Внесите свою лепту в развитие PiratBit!
    Комментировать посты могут только пользователи прошедшие не сложную регистрацию
    Показать сообщения:    

    Гамбит через торрент
    Скачать бесплатно Гамбит
    Гамбит скачать торрент
    Гамбит смотреть онлайн
    Cкачать фильм Гамбит бесплатно
    Гамбит скачать торрент в хорошем качестве
    Гамбит смотреть онлайн бесплатно в хорошем качестве


    Вы не можете начинать темы
    Вы не можете отвечать на сообщения
    Вы не можете редактировать свои сообщения
    Вы не можете удалять свои сообщения
    Вы не можете голосовать в опросах
    Вы не можете прикреплять файлы к сообщениям
    Вы можете скачивать файлы