Ссылка на приватное зеркало нашего сайта всего за 1$. Внимание количество ограничено!!!

2 сезон

iTunes

1 сезон

1

2 сезон

2 сезон

iTunes

1 сезон

RePack

30

Ultimate

ВАЖНО

ИГРА 18+

pack

RePack

MK11
pack

Забери бонус

RePack

jed

!!Акция!!

Alien_Rage

RePack

fifa19

RePack

Assassins Creed: Odyssey

RePack

NEED FOR SPEED™ PAYBACK

4 сезон

9 сезон

Бесстыжие 9 сезон

Все сериалы

все сериалы на PB.wtf

RePack

FAR CRY 5
  

Думай, как мужчина 2 / Think Like a Man Too (Тим Стори) [2014 г., комедия, HDRip, Профессиональный многоголосый] pb.wtf

Думай, как мужчина 2 через торрент pb.wtf

Размер: 1.46 GB | Добавлен: 6 лет 2 мес. назад | Торрент скачан:1764 раза
Скачать  

15-09-2014 15:25 Думай, как мужчина 2 Скачать торрент  

Думай как мужчина 2 / Think Like a Man Too

Год выпуска: 2014
Страна: США
Жанр: комедия
Продолжительность: 01:45:50
Перевод: Профессиональный многоголосый Офицальный

Режиссер: Тим Стори
Продюссер: Уильям Пэкер, Гленн С. Гейнор, Роб Харди
Сценарий: Кит Мерримен, Дэвид А. Ньюман, Стив Харви
Бюджет: $24 000 000
Премьера в мире: 20 июня 2014

IMDB 5.60 (4257)


В ролях: Адам Броди, Майкл Или, Джерри Феррара, Миган Гуд, Реджина Холл, Деннис Хейсбёрт, Тараджи П. Хенсон, Терренс Дженкинс, Дженифер Льюис, Романи Малко

Описание: Пары готовятся к свадьбе в Лас-Вегасе. Они планируют романтический уик-энд, но все идет наперекосяк. Различные злоключения приводят к компрометирующим ситуациям, которые ставят большое событие под угрозу срыва.

Качество: HDRip
Формат: AVI
Видео кодек: XviD
Аудио кодек: AC3
Видео: XviD, 720x304, 23.976 fps, ~1772Kbit/s
Аудио: AC3, 48000 Hz, 2 канала, 192 kbit/s
General
Complete name : /home/sb753/files/Dymaj.kak.myzh4ina.2014.P.HDRip1.46Gb.avi
Format : AVI
Format/Info : Audio Video Interleave
File size : 1.46 GiB
Duration : 1h 45mn
Overall bit rate : 1 973 Kbps
Writing application : VirtualDubMod 1.5.10.2 (build 2540/release)
Writing library : VirtualDubMod build 2540/release

Video
ID : 0
Format : MPEG-4 Visual
Format profile : Advanced Simple@L5
Format settings, BVOP : 2
Format settings, QPel : No
Format settings, GMC : No warppoints
Format settings, Matrix : Default (MPEG)
Codec ID : XVID
Codec ID/Hint : XviD
Duration : 1h 45mn
Bit rate : 1 772 Kbps
Width : 720 pixels
Height : 304 pixels
Display aspect ratio : 2.35:1
Frame rate : 23.976 fps
Color space : YUV
Chroma subsampling : 4:2:0
Bit depth : 8 bits
Scan type : Progressive
Compression mode : Lossy
Bits/(Pixel*Frame) : 0.338
Stream size : 1.31 GiB (90%)
Writing library : XviD 1.2.1 (UTC 2008-12-04)

Audio
ID : 1
Format : AC-3
Format/Info : Audio Coding 3
Mode extension : CM (complete main)
Format settings, Endianness : Big
Codec ID : 2000
Duration : 1h 45mn
Bit rate mode : Constant
Bit rate : 192 Kbps
Channel(s) : 2 channels
Channel positions : Front: L R
Sampling rate : 48.0 KHz
Bit depth : 16 bits
Compression mode : Lossy
Stream size : 145 MiB (10%)
Alignment : Split accross interleaves
Interleave, duration : 42 ms (1.00 video frame)
Interleave, preload duration : 500 ms
pb.wtf



Скачать Думай, как мужчина 2 через торрент http://i63.fastpic.ru/big/2014/0915/5d/682a0201f148b61754f04b7f9f353b5d.png Скачать фильм Думай, как мужчина 2 через торрент бесплантно в хорошем качестве Описание: Пары готовятся к свадьбе в Лас-Вегасе. Они планируют романтический уик-энд, но все идет наперекосяк. Различные злоключения ... 9.4 10 43
Торрент: Зарегистрирован [2014-09-15 15:25] · скачан: 1 764 раз
Статус: √ проверено
Размер: 1.46 GB
Как cкачать? Как скачать Думай, как мужчина 2 через торрент | qTorrent

% Раздел Тема Автор DL S | L
Фильмы 2014 [DVDrip, WEB-DLRip, HDrip] [ 1.37 GB ] Думай как мужчина 2 / Think Like a Man Too [2014 HDRip многоголосый] Ворон Скачать
1 | 0
Фильмы 2014 [DVDrip, WEB-DLRip, HDrip] [ 698 MB ] Думай как мужчина 2 / Think Like a Man Too [2014 HDRip многоголосый Ворон Скачать
1 | 0
Фильмы [HD 720p, 1080p] (Хороший звук DUB, MVO) [ 5.56 GB ] Думай как мужчина 2 / Think Like a Man Too [2014 BDRip 720p / MVO Ворон Скачать
1 | 0
Фильмы 2014 [DVDrip, WEB-DLRip, HDrip] [ 2.05 GB ] Думай как мужчина 2 / Think Like a Man Too [2014 HDRip многоголосый] Ворон Скачать
1 | 0

28-11-2019 20:33  

Отключить всю рекламу на сайте

15-09-2014 15:32 Думай, как мужчина 2 Скачать торрент  

первая была ок )pb.wtf



    Дорогой пользователь! Огромная просьба, поблагодарите релизера, оцените раздачу и оставьте свои комментарий, если Вы скачали Думай, как мужчина 2 через торрент бесплатно! Внесите свою лепту в развитие PiratBit!
    Комментировать посты могут только пользователи прошедшие не сложную регистрацию
    Показать сообщения:    

    Думай, как мужчина 2 через торрент
    Скачать бесплатно Думай, как мужчина 2
    Думай, как мужчина 2 скачать торрент
    Думай, как мужчина 2 смотреть онлайн
    Cкачать фильм Думай, как мужчина 2 бесплатно
    Думай, как мужчина 2 скачать торрент в хорошем качестве
    Думай, как мужчина 2 смотреть онлайн бесплатно в хорошем качестве


    Вы не можете начинать темы
    Вы не можете отвечать на сообщения
    Вы не можете редактировать свои сообщения
    Вы не можете удалять свои сообщения
    Вы не можете голосовать в опросах
    Вы не можете прикреплять файлы к сообщениям
    Вы можете скачивать файлы