1 сезон

1 сезон

iTunes

1

КиноПоиск HD

Кинопоиск HD

iTunes

13

1 сезон

RePack

30

Новинка

ВАЖНО

ИГРА 18+

pack

RePack

MK11
pack

Легкие деньги

RePack

jed

RePack

fifa19

RePack

RDR2

RePack

NEED FOR SPEED™ PAYBACK

4 сезон

9 сезон

Бесстыжие 9 сезон

Все сериалы

все сериалы на PB.wtf

RePack

FAR CRY 5
  
Magnet ссылка

Феррари / Ferrari (Карло Карлеи) [2003 г., драма, биография, DVDRip, Профессиональный многоголосый] pb.wtf

Феррари через торрент pb.wtf

Размер: 2.05 GB | Добавлен: 6 лет 7 мес. назад | Торрент скачан:121 раз
Скачать  

16-09-2014 07:11 Феррари Скачать торрент  

Феррари / Ferrari
Год выпуска: 2003
Страна: Италия
Жанр: драма, биография
Продолжительность: 02:05:00
Перевод: Профессиональный многоголосый
Субтитры: отсутствуют

Режиссер: Карло Карлеи
Продюссер: Алессия Анибальди, Бьянка Мария Бьянкини
Сценарий: Карло Карлеи, Массимо Де Рита, Марио Фальконе

В ролях: Серджио Кастеллитто, Эд Стоппард, Кристина Молья, Джессика Брукс, Мэттью Бозе, Пьерфранческо Фавино, Винсент Скьявелли, Габриэлла Пессион, Пьетро Рагуса, Франческа Де Сапио

Описание: Этот фильм — биография итальянского конструктора и предпринимателя Энцо Феррари, который создал самую знаменитую спортивную машину в мире. Он одерживал блистательные гоночные победы и покорял сердца прекрасных женщин. Он построил завод, осуществив детскую мечту о суперскоростном автомобиле, и собрал звёздную команду гонщиков, ставшую легендой «Формулы-1». Он пережил оккупацию родной страны и познал горечь утрат от потери своих близких.



Качество: DVDRip
Формат: AVI
Видео кодек: XviD
Аудио кодек: AC3
Видео: 704х400 (16:9), 25 fps ~ 1930 Kbps
Аудио#1: 48 KHz 2 ch ~ 192 Kb/s (русский)
Аудио#2: 48 KHz 2 ch ~ 192 Kb/s (английский)
скриншот   скриншот   скриншот   скриншот  

Общее
Полное имя : Q:\TorF\FerrarI.DVDRip.XviD.AC3.avi
Формат : AVI
Формат/Информация : Audio Video Interleave
Профиль формата : OpenDML
Размер файла : 2,05 Гбайт
Продолжительность : 2 ч. 6 м.
Общий поток : 2332 Кбит/сек
Программа кодирования : VirtualDubMod 1.5.10.2 (build 2540/release)
Библиотека кодирования : VirtualDubMod build 2540/release

Видео
Идентификатор : 0
Формат : MPEG-4 Visual
Профиль формата : Advanced Simple@L5
Параметр BVOP формата : 4
Параметр QPel формата : Нет
Параметр GMC формата : Без точки перехода
Параметр матрицы формата : Default (H.263)
Идентификатор кодека : XVID
Идентификатор кодека/Подсказка : XviD
Продолжительность : 2 ч. 6 м.
Битрейт : 1929 Кбит/сек
Ширина : 704 пикселя
Высота : 400 пикселей
Соотношение сторон : 16:9
Частота кадров : 25,000 кадров/сек
Цветовое пространство : YUV
Субдискретизация насыщенности : 4:2:0
Битовая глубина : 8 бит
Тип развёртки : Прогрессивная
Метод сжатия : С потерями
Бит/(Пиксели*Кадры) : 0.274
Размер потока : 1,70 Гбайт (83%)
Библиотека кодирования : XviD 1.2.1 (UTC 2008-12-04)

Аудио #1
Идентификатор : 1
Формат : AC-3
Формат/Информация : Audio Coding 3
Расширение режима : CM (complete main)
Идентификатор кодека : 2000
Продолжительность : 2 ч. 6 м.
Вид битрейта : Постоянный
Битрейт : 192 Кбит/сек
Каналы : 2 канала
Расположение каналов : Front: L R
Частота : 48,0 КГц
Битовая глубина : 16 бит
Метод сжатия : С потерями
Размер потока : 173 Мбайт (8%)
Выравнивание : Соединение по промежуткам
Продолжительность промежутка : 40 мс. (1,00 видеокадр)
Время предзагрузки промежутка : 512 мс.

Аудио #2
Идентификатор : 2
Формат : AC-3
Формат/Информация : Audio Coding 3
Расширение режима : CM (complete main)
Идентификатор кодека : 2000
Продолжительность : 2 ч. 6 м.
Вид битрейта : Постоянный
Битрейт : 192 Кбит/сек
Каналы : 2 канала
Расположение каналов : Front: L R
Частота : 48,0 КГц
Битовая глубина : 16 бит
Метод сжатия : С потерями
Размер потока : 173 Мбайт (8%)
Выравнивание : Разделение по промежуткам
Продолжительность промежутка : 40 мс. (1,00 видеокадр)
Время предзагрузки промежутка : 500 мс.


Феррари скачать торрент


pb.wtf



Скачать Феррари через торрент https://pic.kartinco.top/images/7/qs669.jpg Скачать фильм Феррари через торрент бесплантно в хорошем качестве Описание: Этот фильм — биография итальянского конструктора и предпринимателя Энцо Феррари, который создал самую знаменитую спортивную ... 10 10 2
Info! Золотая раздача, скачанное не засчитывается.
Торрент: Зарегистрирован [2014-09-16 07:11] · скачан: 121 раз
Статус: √ проверено
Размер: 2.05 GB
Как cкачать? Как скачать Феррари через торрент | UTorrent

% Раздел Тема Автор DL S | L
Большие сиськи [ 613 MB ] Феррари. Полный план / Ferrari Plein Pot [1995 All Sex Big Tits Big Boobs DVDRip] Леонид Ильич Скачать
1 | 0
Фильмы (WEB-DL 720p, 1080p) [ 3.46 GB ] Сто дней в Палермо / Cent jours a Palerme / Cento giorni a Palermo [1984 исторический HDTV 1080i] killermax2013 Скачать
1 | 0
Фильмы до 2000 г. [ 2.03 GB ] Отель "Новая Роза" / New Rose Hotel [1998 киберпанк DVDRip-AVC] [MVO] killermax2013 Скачать
1 | 0
Фильмы [HD 720p, 1080p] (Хороший звук DUB, MVO) [ 12.51 GB ] Город страха / Fear City [1984 BDRip 1080p by msltel] MVO AVO msltel Скачать
1 | 0
Фильмы [HD 720p, 1080p] (Хороший звук DUB, MVO) [ 3.97 GB ] Город страха / Fear City [1984 BDRip 720p by msltel] MVO AVO msltel Скачать
1 | 0
Фильмы 2014 [DVDrip, WEB-DLRip, HDrip] [ 1.37 GB ] Добро пожаловать в Нью-Йорк / Welcome to New York [2014 DVDRip многоголосый [] Ворон Скачать
1 | 0
National Geographic [ 1.36 GB ] Мегазаводы: Феррари Фиорано 599 / Megafactories: Ferrari Fiorano 599 [2007 Документальный HDTV 720p] AARRSSEENN Скачать
1 | 0

28-11-2019 20:33  

Отключить всю рекламу на сайте

    Дорогой пользователь! Огромная просьба, поблагодарите релизера, оцените раздачу и оставьте свои комментарий, если Вы скачали Феррари через торрент бесплатно! Внесите свою лепту в развитие PiratBit!
    Комментировать посты могут только пользователи прошедшие не сложную регистрацию
    Показать сообщения:    

    Феррари через торрент
    Скачать бесплатно Феррари
    Феррари скачать торрент
    Феррари смотреть онлайн
    Cкачать фильм Феррари бесплатно
    Феррари скачать торрент в хорошем качестве
    Феррари смотреть онлайн бесплатно в хорошем качестве


    Вы не можете начинать темы
    Вы не можете отвечать на сообщения
    Вы не можете редактировать свои сообщения
    Вы не можете удалять свои сообщения
    Вы не можете голосовать в опросах
    Вы не можете прикреплять файлы к сообщениям
    Вы можете скачивать файлы