2 сезон

iTunes

MVO

1

2 сезон

iTunes

iTunes

1 сезон

RePack

30

Новинка

ВАЖНО

ИГРА 18+

pack

RePack

MK11
pack

Легкие деньги

RePack

jed

RePack

fifa19

RePack

RDR2

RePack

NEED FOR SPEED™ PAYBACK

4 сезон

9 сезон

Бесстыжие 9 сезон

Все сериалы

все сериалы на PB.wtf

RePack

FAR CRY 5

Anonymous, добрый день, мы не успеваем собрать деньги на оплату серверов за декабрь и январь, помогите нам пожалуйста в это трудное время. В качестве благодарности мы отключим Вам всю рекламу на сайте (укажите свой ник в строку Ваше имя)!

×
  
Magnet ссылка

Геракл: Начало легенды / The Legend of Hercules (Ренни Харлин / Renny Harlin) [2014, США, Болгария, боевик, фэнтези, HDRip-AVC,] Дубляж - [Лицензия] От R.G. PiratFilms pb.wtf

Геракл: Начало легенды через торрент pb.wtf

Размер: 2.18 GB | Добавлен: 6 лет 4 мес. назад | Торрент скачан:457 раз
Скачать  

16-09-2014 08:06 Геракл: Начало легенды Скачать торрент  

The Legend of Hercules
«Каждый человек имеет судьбу»


Год выпуска: 2014
Страна: США, Болгария
Жанр: боевик, фэнтези

Продолжительность: 01:38:38
Перевод: Дубляж - [Лицензия]
Субтитры: Нет
Режиссер: Ренни Харлин / Renny Harlin
В ролях:

Келлан Латс (Hercules), Скотт Эдкинс (King Amphitryon), Лиам МакИнтайр (Sotiris), Гайя Уайсс (Hebe), Лайам Гэрриган (Iphicles), Роксанна МакКи (Queen Alcmene), Раде Шербеджия (Chiron), Джонатон Шек (Tarak), Люк Ньюберри (Agamemnon), Кеннет Крэнэм (Lucius), Мэрайя Гэйл (Kakia), Сарай Гивати (Saphirra)
Описание:
1200 г. до н. э. Древняя Греция. Прекрасная царица Алкмена попала под чары грозного бога Олимпа - Зевса и родила ему сына Геракла. При рождении ему было предсказано стать величайшим воином, который будет властвовать над народами и принесет мир и процветание своей стране. Но пока Геракл ничего не знает о своем предназначении. Он вырос прекрасным и сильным юношей. Он мечтает о любви принцессы Крита, Гебы, которая обещана в жены его брату. Когда Геракл узнает о своей великой миссии, он должен выбрать: сбежать со своей любовью или исполнить свое предназначение.
Мировая премьера: 8 января 2014
Релиз от:
    Качество: HDRip-AVC (исх. BDRip 1080р)
    Формат: MKV
    Видео кодек: AVC
    Аудио кодек:AC3
    Видео: AVC, 1024x428 (2.40:1), 2711 kbps, 23,976 fps, 0,258 bpp
    Аудио: AC3 / 5.1 / 48 kHz / 448 kbps / 16 bit


Код:

---[Information] [16.09.2014 2:57:26] x264 [info]: frame I:1730   QP:14.31  size: 88450  PSNR Mean Y:48.11 U:50.95 V:51.36 :48.89 Global:48.38
---[Information] [16.09.2014 2:57:26] x264 [info]: frame P:34342  QP:17.59  size: 26859  PSNR Mean Y:45.25 U:48.73 V:49.63 :46.18 Global:45.34
---[Information] [16.09.2014 2:57:26] x264 [info]: frame B:105840  QP:20.53  size:  8787  PSNR Mean Y:44.05 U:48.71 V:49.40 :45.14 Global:44.29

Код:

General
Unique ID                                : 220236888846892350889557266338607328717 (0xA5B014F7FB297BD1974191F8A2FCEDCD)
Complete name                            : D:\рипы От R.G. PiratFilms\The.Legend.of.Hercules.2014.HDRip-AVC.by.White Smoke.R.G.PiratFilms.mkv
Format                                   : Matroska
Format version                           : Version 4 / Version 2
File size                                : 2.18 GiB
Duration                                 : 1h 38mn
Overall bit rate                         : 3 160 Kbps
Encoded date                             : UTC 2014-09-16 07:14:08
Writing application                      : mkvmerge v6.8.0 ('Theme for Great Cities') 64bit built on Mar  2 2014 21:34:26
Writing library                          : libebml v1.3.0 + libmatroska v1.4.1

Video
ID                                       : 1
Format                                   : AVC
Format/Info                              : Advanced Video Codec
Format profile                           : High@L4.1
Format settings, CABAC                   : Yes
Format settings, ReFrames                : 12 frames
Codec ID                                 : V_MPEG4/ISO/AVC
Duration                                 : 1h 38mn
Bit rate                                 : 2 711 Kbps
Width                                    : 1 024 pixels
Height                                   : 428 pixels
Display aspect ratio                     : 2.40:1
Frame rate                               : 23.976 fps
Color space                              : YUV
Chroma subsampling                       : 4:2:0
Bit depth                                : 8 bits
Scan type                                : Progressive
Bits/(Pixel*Frame)                       : 0.258
Stream size                              : 1.83 GiB (84%)
Writing library                          : x264 core 142 r2431 ac76440
Encoding settings                        : cabac=1 / ref=12 / deblock=1:-3:-3 / analyse=0x3:0x113 / me=umh / subme=9 / psy=1 / psy_rd=1.00:0.00 / mixed_ref=1 / me_range=32 / chroma_me=1 / trellis=1 / 8x8dct=1 / cqm=0 / deadzone=21,11 / fast_pskip=1 / chroma_qp_offset=-2 / threads=12 / lookahead_threads=2 / sliced_threads=0 / nr=0 / decimate=1 / interlaced=0 / bluray_compat=0 / constrained_intra=0 / bframes=8 / b_pyramid=2 / b_adapt=2 / b_bias=8 / direct=1 / weightb=1 / open_gop=0 / weightp=2 / keyint=240 / keyint_min=23 / scenecut=40 / intra_refresh=0 / rc_lookahead=40 / rc=2pass / mbtree=1 / bitrate=2711 / ratetol=1.0 / qcomp=0.65 / qpmin=0 / qpmax=69 / qpstep=4 / cplxblur=20.0 / qblur=0.5 / ip_ratio=1.40 / aq=1:1.00
Language                                 : English
Default                                  : Yes
Forced                                   : No

Audio
ID                                       : 2
Format                                   : AC-3
Format/Info                              : Audio Coding 3
Mode extension                           : CM (complete main)
Codec ID                                 : A_AC3
Duration                                 : 1h 38mn
Bit rate mode                            : Constant
Bit rate                                 : 448 Kbps
Channel(s)                               : 6 channels
Channel positions                        : Front: L C R, Side: L R, LFE
Sampling rate                            : 48.0 KHz
Bit depth                                : 16 bits
Compression mode                         : Lossy
Stream size                              : 316 MiB (14%)
Default                                  : Yes
Forced                                   : No


Скриншоты:
скриншот   скриншот  скриншот   скриншот  скриншот  скриншот  



pb.wtf



Скачать Геракл: Начало легенды через торрент http://pic.kartinco.top/images/7/v636t.jpg Скачать фильм Геракл: Начало легенды через торрент бесплантно в хорошем качестве Описание: 1200 г. до н. э. Древняя Греция. Прекрасная царица Алкмена попала под чары грозного бога Олимпа - Зевса и родила ему сына ... 8.3 10 20
Info! Золотая раздача, скачанное не засчитывается.
Торрент: Зарегистрирован [2014-09-16 08:08] · скачан: 457 раз
Статус: √ проверено
Размер: 2.18 GB
Как cкачать? Как скачать Геракл: Начало легенды через торрент | UTorrent

28-11-2019 20:33  

Отключить всю рекламу на сайте

15-05-2015 09:20 Геракл: Начало легенды Скачать торрент  

Фильм хорош, не пожалел потраченного времени.pb.wtf



    Дорогой пользователь! Огромная просьба, поблагодарите релизера, оцените раздачу и оставьте свои комментарий, если Вы скачали Геракл: Начало легенды через торрент бесплатно! Внесите свою лепту в развитие PiratBit!
    Комментировать посты могут только пользователи прошедшие не сложную регистрацию
    Показать сообщения:    

    Геракл: Начало легенды через торрент
    Скачать бесплатно Геракл: Начало легенды
    Геракл: Начало легенды скачать торрент
    Геракл: Начало легенды смотреть онлайн
    Cкачать фильм Геракл: Начало легенды бесплатно
    Геракл: Начало легенды скачать торрент в хорошем качестве
    Геракл: Начало легенды смотреть онлайн бесплатно в хорошем качестве


    Вы не можете начинать темы
    Вы не можете отвечать на сообщения
    Вы не можете редактировать свои сообщения
    Вы не можете удалять свои сообщения
    Вы не можете голосовать в опросах
    Вы не можете прикреплять файлы к сообщениям
    Вы можете скачивать файлы