Доктор Стрэндж

Лицензия

Добыча

Дубляж

Дом дракона

1 сезон

Тор

Дубляж

В эфире

Дубляж

Там, где раки поют

MVO

Властелин колец

1 сезон

Ultimate

pack

Рекомендуем

30

Пиратка

ВАЖНО

ВАЖНО

Ghostwire

Пиратка

jed

RePack

nioh2

RePack

RDR2

RePack

NEED FOR SPEED™ PAYBACK

RePack

скачать торрент

Кинопоиск HD

Острые козырьки 6 сезон

6 сезон

FAR CRY 6

RePack

скачать торрент

Лицензия

скачать торрент

MVO

1

1 сезон

скачать торрент

1 сезон

скачать торрент

Лицензия

  

Король Шутов (д/ф о Михаиле"Горшке"Горшенёве" 2014) (Михаил Мирого) [2014 г., д/ф,муз.ф.,биография, WEB-DLRip 720p]

Король Шутов через торрент pb.wtf

Размер: 973 MB | Добавлен: 8 лет 2 мес. назад | Торрент скачан:338 раз
| Скачать   

16-09-2014 09:51 Король Шутов Скачать торрент  

Король Шутов (д/ф о Михаиле"Горшке"Горшенёве" 2014)
Год выпуска: 2014
Страна: Россия
Жанр: д/ф,муз.ф.,биография
Продолжительность: 01:17:22

Режиссер: Михаил Мирого

В ролях: Татьяна Ивановна Горшенёва, Алексей Горшенёв, Александр Балунов, Сергей Захаров, Илья Чёрт, Дмитрий Спирин, Константин Кинчев, Валерий Скородед, Николай Ерохин, Илья Никитин, Михаил Семёнов, Даниил Ляпин, Галина Игнатенкова, Александр Лукьянов, Анатолий Скляренко, Денис Неволин,гр."План Ломоносова"и др..
Фильм о солисте и основателе группы "Король и Шут" Михаиле Горшенёве. В фильме рассказывается о Михаиле, каким он был человеком "за сценой". Рассказы от его близких, друзей и коллег по сцене. Фильм создан при финансовой поддержки поклонников и друзей артиста, и не является коммерческим проектом.
Качество: WEB-DLRip 720p
Формат: MP4
Видео кодек: AVC
Аудио кодек: AAC
Видео: AVC, 1280x720, 1 565 Kbps, 25.000 fps
Аудио: AAC, 2 channels, 44.1 kHz, 192 Kbps




General
Complete name : E:\Король Шутов - Документальный фильм о Михаиле Горшеневе [2014].mp4
Format : MPEG-4
Format profile : Base Media / Version 2
Codec ID : mp42
File size : 973 MiB
Duration : 1h 17mn
Overall bit rate mode : Variable
Overall bit rate : 1 759 Kbps
Encoded date : UTC 2014-03-25 12:58:06
Tagged date : UTC 2014-03-25 12:58:06

Video
ID : 1
Format : AVC
Format/Info : Advanced Video Codec
Format profile : [email protected]
Format settings, CABAC : Yes
Format settings, ReFrames : 1 frame
Format settings, GOP : M=1, N=60
Codec ID : avc1
Codec ID/Info : Advanced Video Coding
Duration : 1h 17mn
Bit rate : 1 565 Kbps
Maximum bit rate : 7 719 Kbps
Width : 1 280 pixels
Height : 720 pixels
Display aspect ratio : 16:9
Frame rate mode : Constant
Frame rate : 25.000 fps
Color space : YUV
Chroma subsampling : 4:2:0
Bit depth : 8 bits
Scan type : Progressive
Bits/(Pixel*Frame) : 0.068
Stream size : 866 MiB (89%)
Tagged date : UTC 2014-03-25 13:03:15

Audio
ID : 2
Format : AAC
Format/Info : Advanced Audio Codec
Format profile : LC
Codec ID : 40
Duration : 1h 17mn
Bit rate mode : Variable
Bit rate : 192 Kbps
Maximum bit rate : 201 Kbps
Channel(s) : 2 channels
Channel positions : Front: L R
Sampling rate : 44.1 KHz
Compression mode : Lossy
Stream size : 106 MiB (11%)
Title : IsoMedia File Produced by Google, 5-11-2011
Encoded date : UTC 2014-03-25 13:00:57
Tagged date : UTC 2014-03-25 13:03:15




Скачать Король Шутов через торрент https://pic1.kartinco.top/images/71/tf91q.jpg Скачать, смотреть онлайн Король Шутов бесплантно в хорошем качестве ОписаниеФильм о солисте и основателе группы "Король и Шут" Михаиле Горшенёве. В фильме рассказывается о Михаиле, каким он был человеком ... 10 10 17
Info! Золотая раздача, скачанное не засчитывается.
Торрент: Зарегистрирован [2014-09-16 09:51] · скачан: 338 раз
Статус: √ проверено
Размер: 973 MB
Как cкачать? Как скачать Король Шутов через торрент | UTorrent

28-11-2019 20:33  


Отключить вcю реклaмy на сайте, в т.ч. и в плеере онлайн просмотра!

16-09-2014 09:57 Король Шутов Скачать торрент  

я думаю обязательно к просмотру!!!



16-09-2014 10:01 Король Шутов Скачать торрент  

Спасибо!!!



16-09-2014 10:44 Король Шутов Скачать торрент  

Спасибо!



16-09-2014 11:23 Король Шутов Скачать торрент  

спасибо



16-09-2014 12:14 Король Шутов Скачать торрент  

СПАСИБО!ХОЙ



16-09-2014 12:23 Король Шутов Скачать торрент  

Панки-Хой!!!Войне-Х..й!!!!



17-09-2014 20:16 Король Шутов Скачать торрент  

спасибо



29-09-2014 19:44 Король Шутов Скачать торрент  

Все очень интересно!Но на мой взгляд, я не думаю, что все кто просмотрят данный фильм, знают в лицо всех высказывающихся!Допустим для меня половина из тех кто участвовал в съемках в лицо не знакомы!Если я не прав извините!



04-12-2014 06:42 Король Шутов Скачать торрент  

Спасибо! Эхх, молодость.... время бесценно



24-04-2020 14:22 Король Шутов Скачать торрент  

Спасибо!!!!!!



    Дорогой пользователь! Огромная просьба, поблагодарите релизера, оцените раздачу и оставьте свои комментарий, если Вы скачали Король Шутов через торрент бесплатно!!
    Комментировать посты могут только пользователи прошедшие не сложную регистрацию
    Показать сообщения:    


    Король Шутов через торрент
    Скачать бесплатно Король Шутов
    Король Шутов скачать торрент
    Король Шутов смотреть онлайн
    Cкачать фильм Король Шутов бесплатно
    Король Шутов скачать торрент в хорошем качестве
    Король Шутов смотреть онлайн бесплатно в хорошем качестве
    Вы не можете начинать темы
    Вы не можете отвечать на сообщения
    Вы не можете редактировать свои сообщения
    Вы не можете удалять свои сообщения
    Вы не можете голосовать в опросах
    Вы не можете прикреплять файлы к сообщениям
    Вы можете скачивать файлы
    Король Шутов [2014 г., д/ф,муз.ф.,биография, WEB-DLRip 720p] смотреть онлайн, скачать торрент picoco.icu