Ссылка на приватное зеркало нашего сайта всего за 1$. Внимание количество ограничено!!!

2 сезон

iTunes

1 сезон

1

iTunes

iTunes

iTunes

1 сезон

RePack

30

ИГРА 18+

pack

ВАЖНО

!!Акция!!

Alien_RageХит недели

RePack

MK11
pack

Забери бонус

RePack

jed

!!Акция!!

Alien_Rage

RePack

fifa19

RePack

Assassins Creed: Odyssey

RePack

NEED FOR SPEED™ PAYBACK

4 сезон

9 сезон

Бесстыжие 9 сезон

Все сериалы

все сериалы на PB.wtf

RePack

FAR CRY 5
  

Сирены / Sirens (Джон Дайган) [1993 г.,комедия, драма, BDRip 1080p] MVO, AVO pb.wtf

Сирены через торрент pb.wtf

Размер: 10.38 GB | Добавлен: 6 лет 1 мес. назад | Торрент скачан:34 раза
Скачать  

16-09-2014 13:46 Сирены Скачать торрент  

Сирены / Sirens

Год выпуска: 1993
Страна: Австралия, Великобритания
Жанр: Комедия, драма
Продолжительность: 01:30:13
Перевод: Профессиональный многоголосый, авторский
Субтитры: Русские

Режиссер: Джон Дайган

В ролях: Хью Грант, Тара Фитцджеральд, Сэм Нилл, Эль Макферсон, Портия Де Росси, Кейт Фишер, Памела Рэйб, Бен Мендельсон, Джон Полсон, Марк Гербер

Описание: Сирены — Шила, Джудди и Пру — три ошеломляющей красоты натурщицы, позирующие для художника-авангардиста в его удалённой гавани. Когда юный священник и его жена прибывают к художнику с целью наставить его на путь истинный и убедить не выставлять «развратные» картины на выставку, они попадают в рассадник искушения, и сами запутываются в сексуально-страстной атмосфере греха, шокирующей и соблазняющей их. Откровенные фантазии и провоцирующие сцены добавляют немало поворотов в эту приятно-возбуждающую романтическую комедию-мелодраму, которая снискала популярность как у зрителей, так и у критиков.



Качество: BDRip 1080p [Исходник -- Ванчело (Кинозал)] Сравнение с исходником
Формат: MKV
Видео кодек: H.264
Аудио кодек: AC3
Видео: 1920х1036, 14,7 Мбит/с, 25 кадров/сек
Аудио 1: русский, AC3, 224 kbps, 2 ch, 48 kHz [Профессиональный многоголосый, DVD Магия]
Аудио 2: русский, AC3, 192 kbps, 2 ch, 48 kHz [Профессиональный многоголосый, студия Велес]
Аудио 3: русский, AC3, 192 kbps, 2 ch, 48 kHz [Авторский, Сергей Визгунов]
Аудио 4: русский, AC3, 192 kbps, 2 ch, 48 kHz [Авторский, Василий Горчаков]
Аудио 5: русский, AC3, 192 kbps, 2 ch, 48 kHz [Авторский, Алексей Михалёв]
Аудио 6: английский, AC3, 192 kbps, 2 ch, 48 kHz [Оригинал]
Аудио 7: английский, AC3, 224 kbps, 2 ch, 48 kHz [Комментарий режиссёра]
Общее
Уникальный идентификатор : 252337577804846057477449209403135785613 (0xBDD67320C647D7A2AE99A8D6DCA07A8D)
Полное имя : D:\Video\Sireny.1993.BDRip.1080p.mkv
Формат : Matroska
Версия формата : Version 4 / Version 2
Размер файла : 10,4 Гбайт
Продолжительность : 1 ч. 30 м.
Общий поток : 16,5 Мбит/сек
Дата кодирования : UTC 2014-09-16 12:02:02
Программа кодирования : mkvmerge v6.9.1 ('Blue Panther') 64bit built on Apr 18 2014 18:23:38
Библиотека кодирования : libebml v1.3.0 + libmatroska v1.4.1

Видео
Идентификатор : 1
Формат : AVC
Формат/Информация : Advanced Video Codec
Профиль формата : High@L4.1
Параметр CABAC формата : Да
Параметр ReFrames формата : 4 кадра
Идентификатор кодека : V_MPEG4/ISO/AVC
Продолжительность : 1 ч. 30 м.
Битрейт : 14,7 Мбит/сек
Ширина : 1920 пикселей
Высота : 1036 пикселей
Соотношение сторон : 1,85:1
Режим частоты кадров : Постоянный
Частота кадров : 25,000 кадров/сек
Цветовое пространство : YUV
Субдискретизация насыщенности : 4:2:0
Битовая глубина : 8 бит
Тип развёртки : Прогрессивная
Бит/(Пиксели*Кадры) : 0.296
Размер потока : 9,29 Гбайт (89%)
Заголовок : BDRip -- STarankov
Библиотека кодирования : x264 core 142 r2431 ac76440
Настройки программы : cabac=1 / ref=4 / deblock=1:-1:-1 / analyse=0x3:0x113 / me=umh / subme=10 / psy=1 / psy_rd=1.00:0.15 / mixed_ref=1 / me_range=32 / chroma_me=1 / trellis=2 / 8x8dct=1 / cqm=0 / deadzone=21,11 / fast_pskip=0 / chroma_qp_offset=-3 / threads=6 / lookahead_threads=1 / sliced_threads=0 / nr=0 / decimate=1 / interlaced=0 / bluray_compat=0 / constrained_intra=0 / bframes=8 / b_pyramid=2 / b_adapt=2 / b_bias=0 / direct=1 / weightb=1 / open_gop=0 / weightp=2 / keyint=240 / keyint_min=24 / scenecut=40 / intra_refresh=0 / rc_lookahead=40 / rc=crf / mbtree=0 / crf=18.0 / qcomp=0.60 / qpmin=0 / qpmax=69 / qpstep=4 / vbv_maxrate=40000 / vbv_bufsize=50000 / crf_max=0.0 / nal_hrd=none / filler=0 / ip_ratio=1.40 / pb_ratio=1.30 / aq=1:1.00
Язык : English
Default : Да
Forced : Нет

Аудио #1
Идентификатор : 2
Формат : AC-3
Формат/Информация : Audio Coding 3
Расширение режима : CM (complete main)
Параметр Endianness формата : Big
Идентификатор кодека : A_AC3
Продолжительность : 1 ч. 30 м.
Вид битрейта : Постоянный
Битрейт : 224 Кбит/сек
Каналы : 2 канала
Расположение каналов : Front: L R
Частота : 48,0 КГц
Битовая глубина : 16 бит
Метод сжатия : С потерями
Размер потока : 145 Мбайт (1%)
Заголовок : MVO (DVD Магия)
Язык : Russian
Default : Да
Forced : Нет

Аудио #2
Идентификатор : 3
Формат : AC-3
Формат/Информация : Audio Coding 3
Расширение режима : CM (complete main)
Параметр Endianness формата : Big
Идентификатор кодека : A_AC3
Продолжительность : 1 ч. 30 м.
Вид битрейта : Постоянный
Битрейт : 192 Кбит/сек
Каналы : 2 канала
Расположение каналов : Front: L R
Частота : 48,0 КГц
Битовая глубина : 16 бит
Метод сжатия : С потерями
Размер потока : 124 Мбайт (1%)
Заголовок : MVO (студия Велес)
Язык : Russian
Default : Нет
Forced : Нет

Аудио #3
Идентификатор : 4
Формат : AC-3
Формат/Информация : Audio Coding 3
Расширение режима : CM (complete main)
Параметр Endianness формата : Big
Идентификатор кодека : A_AC3
Продолжительность : 1 ч. 30 м.
Вид битрейта : Постоянный
Битрейт : 192 Кбит/сек
Каналы : 2 канала
Расположение каналов : Front: L R
Частота : 48,0 КГц
Битовая глубина : 16 бит
Метод сжатия : С потерями
Размер потока : 124 Мбайт (1%)
Заголовок : AVO (Сергей Визгунов)
Язык : Russian
Default : Нет
Forced : Нет

Аудио #4
Идентификатор : 5
Формат : AC-3
Формат/Информация : Audio Coding 3
Расширение режима : CM (complete main)
Параметр Endianness формата : Big
Идентификатор кодека : A_AC3
Продолжительность : 1 ч. 30 м.
Вид битрейта : Постоянный
Битрейт : 192 Кбит/сек
Каналы : 2 канала
Расположение каналов : Front: L R
Частота : 48,0 КГц
Битовая глубина : 16 бит
Метод сжатия : С потерями
Размер потока : 124 Мбайт (1%)
Заголовок : AVO (Василий Горчаков)
Язык : Russian
Default : Нет
Forced : Нет

Аудио #5
Идентификатор : 6
Формат : AC-3
Формат/Информация : Audio Coding 3
Расширение режима : CM (complete main)
Параметр Endianness формата : Big
Идентификатор кодека : A_AC3
Продолжительность : 1 ч. 30 м.
Вид битрейта : Постоянный
Битрейт : 192 Кбит/сек
Каналы : 2 канала
Расположение каналов : Front: L R
Частота : 48,0 КГц
Битовая глубина : 16 бит
Метод сжатия : С потерями
Размер потока : 124 Мбайт (1%)
Заголовок : AVO (Алексей Михалёв)
Язык : Russian
Default : Нет
Forced : Нет

Аудио #6
Идентификатор : 7
Формат : AC-3
Формат/Информация : Audio Coding 3
Расширение режима : CM (complete main)
Параметр Endianness формата : Big
Идентификатор кодека : A_AC3
Продолжительность : 1 ч. 30 м.
Вид битрейта : Постоянный
Битрейт : 192 Кбит/сек
Каналы : 2 канала
Расположение каналов : Front: L R
Частота : 48,0 КГц
Битовая глубина : 16 бит
Метод сжатия : С потерями
Размер потока : 124 Мбайт (1%)
Заголовок : Original
Язык : English
Default : Нет
Forced : Нет

Аудио #7
Идентификатор : 8
Формат : AC-3
Формат/Информация : Audio Coding 3
Расширение режима : CM (complete main)
Параметр Endianness формата : Big
Идентификатор кодека : A_AC3
Продолжительность : 1 ч. 30 м.
Вид битрейта : Постоянный
Битрейт : 224 Кбит/сек
Каналы : 2 канала
Расположение каналов : Front: L R
Частота : 48,0 КГц
Битовая глубина : 16 бит
Метод сжатия : С потерями
Размер потока : 145 Мбайт (1%)
Заголовок : Комментарий режиссёра
Язык : English
Default : Нет
Forced : Нет

Текст
Идентификатор : 9
Формат : UTF-8
Идентификатор кодека : S_TEXT/UTF8
Идентификатор кодека/Информация : UTF-8 Plain Text
Заголовок : русский
Язык : Russian
Default : Нет
Forced : Нет

---[Information] [16.09.2014 6:28:49] raw [info]: 1920x1036p 1:1 @ 25/1 fps (cfr)
---[Information] [16.09.2014 6:28:49] x264 [info]: using SAR=1/1
---[Information] [16.09.2014 6:28:49] x264 [info]: using cpu capabilities: MMX2 SSE2Fast SSSE3 SSE4.2
---[Information] [16.09.2014 6:28:49] x264 [info]: profile High, level 4.1
---[Information] [16.09.2014 18:51:10] x264 [info]: frame I:1016 Avg QP:17.55 size:211128
---[Information] [16.09.2014 18:51:10] x264 [info]: frame P:24993 Avg QP:18.37 size:116689
---[Information] [16.09.2014 18:51:10] x264 [info]: frame B:109320 Avg QP:20.29 size: 64621
---[Information] [16.09.2014 18:51:10] x264 [info]: consecutive B-frames: 1.1% 0.8% 2.9% 11.3% 17.9% 48.5% 8.5% 6.1% 3.0%
---[Information] [16.09.2014 18:51:10] x264 [info]: mb I I16..4: 2.2% 90.9% 6.8%
---[Information] [16.09.2014 18:51:10] x264 [info]: mb P I16..4: 1.1% 40.1% 1.5% P16..4: 27.6% 21.1% 8.1% 0.0% 0.0% skip: 0.5%
---[Information] [16.09.2014 18:51:10] x264 [info]: mb B I16..4: 0.3% 9.6% 0.2% B16..8: 36.7% 15.9% 3.8% direct:18.7% skip:14.7% L0:42.5% L1:41.5% BI:15.9%
---[Information] [16.09.2014 18:51:10] x264 [info]: 8x8 transform intra:94.3% inter:63.7%
---[Information] [16.09.2014 18:51:10] x264 [info]: coded y,uvDC,uvAC intra: 95.0% 93.3% 80.4% inter: 55.1% 56.9% 12.0%
---[Information] [16.09.2014 18:51:10] x264 [info]: i16 v,h,dc,p: 35% 9% 15% 41%
---[Information] [16.09.2014 18:51:10] x264 [info]: i8 v,h,dc,ddl,ddr,vr,hd,vl,hu: 11% 9% 13% 8% 11% 12% 11% 12% 14%
---[Information] [16.09.2014 18:51:10] x264 [info]: i4 v,h,dc,ddl,ddr,vr,hd,vl,hu: 12% 7% 4% 9% 15% 16% 14% 12% 12%
---[Information] [16.09.2014 18:51:10] x264 [info]: i8c dc,h,v,p: 56% 16% 17% 12%
---[Information] [16.09.2014 18:51:10] x264 [info]: Weighted P-Frames: Y:8.4% UV:3.2%
---[Information] [16.09.2014 18:51:10] x264 [info]: ref P L0: 45.2% 13.8% 28.2% 11.6% 1.2% 0.0%
---[Information] [16.09.2014 18:51:10] x264 [info]: ref B L0: 83.5% 13.5% 3.0%
---[Information] [16.09.2014 18:51:10] x264 [info]: ref B L1: 89.7% 10.3%
---[Information] [16.09.2014 18:51:10] x264 [info]: kb/s:15067.33
---[Information] [16.09.2014 18:51:10] encoded 135329 frames, 3.04 fps, 15067.33 kb/s
--[Information] [16.09.2014 18:51:12] Final statistics
---[Information] [16.09.2014 18:51:12] Constant Quality Mode: Quality 18 computed...
---[Information] [16.09.2014 18:51:12] Video Bitrate Obtained (approximate): 15069 kbit/s
--[Information] [16.09.2014 18:51:12] MediaInfo
---[Information] [16.09.2014 18:51:12] File: D:\Rip\Sireny.1993.BDRip\Sireny.1993.BDRip.1080p.mkv
pb.wtf



Скачать Сирены через торрент http://i63.fastpic.ru/big/2014/0915/57/7bdf1fb5e06558afdf51a36dcddbb657.jpg Скачать фильм Сирены через торрент бесплантно в хорошем качестве Описание: Сирены — Шила, Джудди и Пру — три ошеломляющей красоты натурщицы, позирующие для художника-авангардиста в его удалённой гавани. ... 10 10 3
Info! Золотая раздача, скачанное не засчитывается.
Торрент: Зарегистрирован [2014-09-16 13:46] · скачан: 34 раз
Статус: √ проверено
Размер: 10.38 GB
Как cкачать? Как скачать Сирены через торрент | qTorrent

% Раздел Тема Автор DL S | L
Фильмы [HD 720p, 1080p] (Хороший звук DUB, MVO) [ 4.42 GB ] Сирены / Sirens [1993 BDRip 720p] MVO AVO msltel Скачать
1 | 0

28-11-2019 20:33  

Отключить всю рекламу на сайте

    Дорогой пользователь! Огромная просьба, поблагодарите релизера, оцените раздачу и оставьте свои комментарий, если Вы скачали Сирены через торрент бесплатно! Внесите свою лепту в развитие PiratBit!
    Комментировать посты могут только пользователи прошедшие не сложную регистрацию
    Показать сообщения:    

    Сирены через торрент
    Скачать бесплатно Сирены
    Сирены скачать торрент
    Сирены смотреть онлайн
    Cкачать фильм Сирены бесплатно
    Сирены скачать торрент в хорошем качестве
    Сирены смотреть онлайн бесплатно в хорошем качестве


    Вы не можете начинать темы
    Вы не можете отвечать на сообщения
    Вы не можете редактировать свои сообщения
    Вы не можете удалять свои сообщения
    Вы не можете голосовать в опросах
    Вы не можете прикреплять файлы к сообщениям
    Вы можете скачивать файлы