2 сезон

iTunes

MVO

1

2 сезон

iTunes

iTunes

1 сезон

RePack

30

Новинка

ВАЖНО

ИГРА 18+

pack

RePack

MK11
pack

Легкие деньги

RePack

jed

RePack

fifa19

RePack

RDR2

RePack

NEED FOR SPEED™ PAYBACK

4 сезон

9 сезон

Бесстыжие 9 сезон

Все сериалы

все сериалы на PB.wtf

RePack

FAR CRY 5

Anonymous, доброе утро, мы не успеваем собрать деньги на оплату серверов за декабрь и январь, помогите нам пожалуйста в это трудное время. В качестве благодарности мы отключим Вам всю рекламу на сайте (укажите свой ник в строку Ваше имя)!

×
  
Magnet ссылка

Легенды: Гробница дракона / Legendary: Tomb of the Dragon (Эрик Стайлз / Eric Styles) [2013, Великобритания, Китай, боевик, приключения, HDRip, Профессиональный многоголосый] pb.wtf

Легенды: Гробница дракона через торрент pb.wtf

Размер: 1.37 GB | Добавлен: 6 лет 4 мес. назад | Торрент скачан:900 раз
Скачать  

17-09-2014 23:43 Легенды: Гробница дракона Скачать торрент  

Легенды: Гробница дракона / Legendary: Tomb of the Dragon«Search for the adventure»
Год выпуска: 2013
Страна: Великобритания, Китай
Жанр: боевик, приключения
Продолжительность: 01:32:29
Перевод: Профессиональный многоголосый
Субтитры: Отсутствует
Режиссер: Эрик Стайлз / Eric Styles
В ролях:


Скотт Эдкинс (Travis Preston), Дольф Лундгрен (Harker), И Хуан (Dr. Lan Zeng), Нэйтан Ли (Brandon Hua), Джеймс Лэнс (Doug McConnell), Лидия Леонард (Katie), Гэн Лэ (Jianyu), Мюррей Клайв Уокер (Chuck), Виктор Собчак (Vadim), Том Остин (Scott), Дэвид Дженкинс (Fry), Li Shengye (Han Wu)

Описание:
Команда исследователей путешествует по Китаю в поисках следов доисторических животных. Случайно они находят место, где огромных размеров монстры не просто хорошо сохранились, но и живут и охотятся как ни в чем не бывало. Радость от знакомства с находками портит охотник по имени Харкер, открывший стрельбу в самый неподходящий момент. Теперь людям предстоит противостоять разбушевавшимся монстрам и спасаться бегством.

Рейтинг:
Бюджет:$12 000 000
MPAA: PG-13 - Детям до 13 лет просмотр не желателен
Качество: HDRip
Формат: AVI
Видео кодек:XviD
Аудио кодек:AC3
Видео: XviD, 720x304 (2.35:1), 1913 kbps, 23,976 fps, 0,365 bpp
Аудио: AC3 / 2.0 / 48 kHz / 192 kbps / 16 bit

General
Complete name : D:\Users\_KaisiK_\uTorrent\КИНО\Legendy.Grobnica.drakona.2013.P.HDRip.1400MB.avi
Format : AVI
Format/Info : Audio Video Interleave
File size : 1.37 GiB
Duration : 1h 32mn
Overall bit rate : 2 115 Kbps
Writing application : VirtualDubMod 1.5.10.2 (build 2540/release)
Writing library : VirtualDubMod build 2540/release

Video
ID : 0
Format : MPEG-4 Visual
Format profile : Advanced Simple@L5
Format settings, BVOP : 2
Format settings, QPel : No
Format settings, GMC : No warppoints
Format settings, Matrix : Default (MPEG)
Codec ID : XVID
Codec ID/Hint : XviD
Duration : 1h 32mn
Bit rate : 1 914 Kbps
Width : 720 pixels
Height : 304 pixels
Display aspect ratio : 2.35:1
Frame rate : 23.976 fps
Color space : YUV
Chroma subsampling : 4:2:0
Bit depth : 8 bits
Scan type : Progressive
Compression mode : Lossy
Bits/(Pixel*Frame) : 0.365
Stream size : 1.24 GiB (90%)
Writing library : XviD 1.2.1 (UTC 2008-12-04)

Audio
ID : 1
Format : AC-3
Format/Info : Audio Coding 3
Mode extension : CM (complete main)
Codec ID : 2000
Duration : 1h 32mn
Bit rate mode : Constant
Bit rate : 192 Kbps
Channel(s) : 2 channels
Channel positions : Front: L R
Sampling rate : 48.0 KHz
Bit depth : 16 bits
Compression mode : Lossy
Stream size : 127 MiB (9%)
Alignment : Split accross interleaves
Interleave, duration : 42 ms (1.00 video frame)
Interleave, preload duration : 500 ms

[/code]
pb.wtf



Скачать Легенды: Гробница дракона через торрент http://i6.imageban.ru/out/2014/09/18/3a0079aeb5567843e00dcd4f2dd8181f.jpg Скачать фильм Легенды: Гробница дракона через торрент бесплантно в хорошем качестве Описание: Команда исследователей путешествует по Китаю в поисках следов доисторических животных. Случайно они находят место, где огромных ... 9.8 10 27
Торрент: Зарегистрирован [2014-09-17 23:43] · скачан: 900 раз
Статус: √ проверено
Размер: 1.37 GB
Как cкачать? Как скачать Легенды: Гробница дракона через торрент | UTorrent

% Раздел Тема Автор DL S | L
Фильмы [HD 720p, 1080p] (Звук Cam, VO, DVO) [ 8.91 GB ] Легенды: Гробница дракона / Legendary: Tomb of the Dragon [2013 BDRip 1080p] VO Ворон Скачать
1 | 0
3D Фильмы [ 6.11 GB ] Легенды: Гробница дракона 3Д / Legendary: Tomb of the Dragon 3D [2013 BDRip 1080p Любительский одноголосый] Анаглиф slaventi-69 Скачать
1 | 0
Фильмы 2013 (Звук TS, Cam, VO, DVO) [ 1.46 GB ] Легенды: Гробница дракона / Legendary: Tomb of the Dragon [2013 Китай HDRipЛюбительский [Татьяна] Ворон Скачать
1 | 0


Последний раз редактировалось: _KaisiK_ (2014-12-11 12:14), всего редактировалось 2 раз(а)

28-11-2019 20:33  

Отключить всю рекламу на сайте

18-09-2014 04:55 Легенды: Гробница дракона Скачать торрент  

как кино то?pb.wtf



18-09-2014 05:32 Легенды: Гробница дракона Скачать торрент  

an7878 писал(а):

как кино то?

замечательный фильм, с простым и в то же время интересным сюжетом, с отличными актёрами и красивой графикой.pb.wtf



18-09-2014 15:32 Легенды: Гробница дракона Скачать торрент  

Отстой с примитивным сюжетом, с не-первой-свежести актерами и убогой графикойpb.wtf



19-09-2014 05:13 Легенды: Гробница дракона Скачать торрент  

на один раз и то с натяжкой, вчера смотрел по кабельномуpb.wtf



    Дорогой пользователь! Огромная просьба, поблагодарите релизера, оцените раздачу и оставьте свои комментарий, если Вы скачали Легенды: Гробница дракона через торрент бесплатно! Внесите свою лепту в развитие PiratBit!
    Комментировать посты могут только пользователи прошедшие не сложную регистрацию
    Показать сообщения:    

    Легенды: Гробница дракона через торрент
    Скачать бесплатно Легенды: Гробница дракона
    Легенды: Гробница дракона скачать торрент
    Легенды: Гробница дракона смотреть онлайн
    Cкачать фильм Легенды: Гробница дракона бесплатно
    Легенды: Гробница дракона скачать торрент в хорошем качестве
    Легенды: Гробница дракона смотреть онлайн бесплатно в хорошем качестве


    Вы не можете начинать темы
    Вы не можете отвечать на сообщения
    Вы не можете редактировать свои сообщения
    Вы не можете удалять свои сообщения
    Вы не можете голосовать в опросах
    Вы не можете прикреплять файлы к сообщениям
    Вы можете скачивать файлы