1 сезон

1 сезон

iTunes

1

КиноПоиск HD

Кинопоиск HD

iTunes

13

1 сезон

RePack

30

Новинка

ВАЖНО

ИГРА 18+

pack

RePack

MK11
pack

Легкие деньги

RePack

jed

RePack

fifa19

RePack

RDR2

RePack

NEED FOR SPEED™ PAYBACK

4 сезон

9 сезон

Бесстыжие 9 сезон

Все сериалы

все сериалы на PB.wtf

RePack

FAR CRY 5
  
Magnet ссылка

Искусительницы / Playboy: Roommates (Скотт Аллен / Scott Allen) [2002, США, Эротика, DVDRip, Профессиональный (двухголосый) pb.wtf

Искусительницы через торрент pb.wtf

Размер: 1.36 GB | Добавлен: 6 лет 7 мес. назад | Торрент скачан:343 раза
Скачать  

18-09-2014 03:40 Искусительницы Скачать торрент  

Искусительницы / Playboy: Roommates


  • Год выпуска: 2002
  • Страна: США
  • Жанр: Эротика
  • Продолжительность: 00:55:28
  • Перевод: Профессиональный (двухголосый)

  • Режиссер: Скотт Аллен / Scott Allen
  • В ролях:

    Антониетта Эбботт (играет саму себя), Эрика Александр (играет саму себя), Китана Бэйкер (играет саму себя), Джеки Касвелл (играет саму себя), Кристи Клайн (играет саму себя), Лаура Ковер (играет саму себя), Джэми Феррелл (играет саму себя), Роксанна Галла (играет саму себя), Амелия Гардуно (играет саму себя), Мириам Гонзалес (играет саму себя), Холли Халливуд (играет саму себя), Тинара Кай (играет саму себя)

  • Описание:
    Что произойдет, если несколько потрясающих, соблазнительных, необузданных искусительниц соберутся все вместе в одних апартаментах? А вот что: Вы подниметесь на новый уровень эротического наслаждения! Для этих проказливых нимф не существует пределов чувственности. Просто располагайтесь удобнее и смотрите, как воплощаются в жизнь Ваши самые невероятные фантазии!
  • Рейтинг:



  • Качество: DVDRip
  • Формат: :MKV
  • Видео кодек: AVC
  • Аудио кодек: AC3
  • Видео: 720x544 (4:3), 2680 kbps, 25 fps, 0,274 bpp
  • Аудио №1: русский / 5.1 / 48 kHz / 384 kbps / 16 bit
  • Аудио №2: английский / 5.1 / 48 kHz / 448 kbps / 16 bit
  • Релиз от: GEKADOL
    Не нашли то, что искали? Для вас "Стол заказов" "Жмём сюда!"

    Код:

    General
    Unique ID                                : 228406511229058113892810007262900654371 (0xABD57E734DF048DFBC041EA6A9BE1123)
    Complete name                            : D:\Фильмы\Playboy_Roommates.2002.DVDRip.mkv
    Format                                   : Matroska
    Format version                           : Version 4 / Version 2
    File size                                : 1.36 GiB
    Duration                                 : 55mn 28s
    Overall bit rate                         : 3 514 Kbps
    Encoded date                             : UTC 2014-09-06 21:01:49
    Writing application                      : mkvmerge v6.7.0 ('Back to the Ground') 32bit built on Jan  8 2014 15:03:17
    Writing library                          : libebml v1.3.0 + libmatroska v1.4.1

    Video
    ID                                       : 1
    Format                                   : AVC
    Format/Info                              : Advanced Video Codec
    Format profile                           : Main@L3.0
    Format settings, CABAC                   : Yes
    Format settings, ReFrames                : 4 frames
    Codec ID                                 : V_MPEG4/ISO/AVC
    Duration                                 : 55mn 28s
    Bit rate                                 : 2 680 Kbps
    Width                                    : 720 pixels
    Height                                   : 544 pixels
    Display aspect ratio                     : 4:3
    Frame rate mode                          : Variable
    Frame rate                               : 25.000 fps
    Color space                              : YUV
    Chroma subsampling                       : 4:2:0
    Bit depth                                : 8 bits
    Scan type                                : Progressive
    Bits/(Pixel*Frame)                       : 0.274
    Stream size                              : 1.01 GiB (74%)
    Writing library                          : x264 core 112
    Encoding settings                        : cabac=1 / ref=2 / deblock=1:0:0 / analyse=0x1:0x111 / me=hex / subme=6 / psy=1 / psy_rd=1.00:0.00 / mixed_ref=0 / me_range=16 / chroma_me=1 / trellis=0 / 8x8dct=0 / cqm=0 / deadzone=21,11 / fast_pskip=1 / chroma_qp_offset=-2 / threads=3 / sliced_threads=0 / nr=0 / decimate=1 / interlaced=0 / constrained_intra=0 / bframes=2 / b_pyramid=2 / b_adapt=1 / b_bias=0 / direct=1 / weightb=0 / open_gop=0 / weightp=2 / keyint=250 / keyint_min=25 / scenecut=40 / intra_refresh=0 / rc_lookahead=40 / rc=2pass / mbtree=1 / bitrate=2680 / ratetol=1.0 / qcomp=0.60 / qpmin=3 / qpmax=51 / qpstep=4 / cplxblur=20.0 / qblur=0.5 / ip_ratio=1.40 / aq=1:1.00
    Language                                 : English
    Default                                  : Yes
    Forced                                   : No
    Color primaries                          : BT.601-6 525, BT.1358 525, BT.1700 NTSC, SMPTE 170M
    Transfer characteristics                 : BT.709-5, BT.1361
    Matrix coefficients                      : BT.601-6 525, BT.1358 525, BT.1700 NTSC, SMPTE 170M

    Audio #1
    ID                                       : 2
    Format                                   : AC-3
    Format/Info                              : Audio Coding 3
    Mode extension                           : CM (complete main)
    Codec ID                                 : A_AC3
    Duration                                 : 55mn 28s
    Bit rate mode                            : Constant
    Bit rate                                 : 384 Kbps
    Channel(s)                               : 6 channels
    Channel positions                        : Front: L C R, Side: L R, LFE
    Sampling rate                            : 48.0 KHz
    Bit depth                                : 16 bits
    Compression mode                         : Lossy
    Stream size                              : 152 MiB (11%)
    Language                                 : Russian
    Default                                  : Yes
    Forced                                   : No

    Audio #2
    ID                                       : 3
    Format                                   : AC-3
    Format/Info                              : Audio Coding 3
    Mode extension                           : CM (complete main)
    Codec ID                                 : A_AC3
    Duration                                 : 55mn 28s
    Bit rate mode                            : Constant
    Bit rate                                 : 448 Kbps
    Channel(s)                               : 6 channels
    Channel positions                        : Front: L C R, Side: L R, LFE
    Sampling rate                            : 48.0 KHz
    Bit depth                                : 16 bits
    Compression mode                         : Lossy
    Stream size                              : 178 MiB (13%)
    Language                                 : English
    Default                                  : No
    Forced                                   : No


    Скриншоты:


    pb.wtf



  • Скачать Искусительницы через торрент http://i65.fastpic.ru/big/2014/0918/5c/516cf69fab05f4aed6cb96e3659d4c5c.jpg Скачать фильм Искусительницы через торрент бесплантно в хорошем качестве Описание: Что произойдет, если несколько потрясающих, соблазнительных, необузданных искусительниц соберутся все вместе в одних ... 10 10 9
    Торрент: Зарегистрирован [2014-09-18 03:40] · скачан: 343 раз
    Статус: √ проверено
    Размер: 1.36 GB
    Как cкачать? Как скачать Искусительницы через торрент | UTorrent

    28-11-2019 20:33  

    Отключить всю рекламу на сайте


    18-09-2014 03:59 Искусительницы Скачать торрент  

    Киношка на сон грядущий) pb.wtf



      Дорогой пользователь! Огромная просьба, поблагодарите релизера, оцените раздачу и оставьте свои комментарий, если Вы скачали Искусительницы через торрент бесплатно! Внесите свою лепту в развитие PiratBit!
      Комментировать посты могут только пользователи прошедшие не сложную регистрацию
      Показать сообщения:    

      Искусительницы через торрент
      Скачать бесплатно Искусительницы
      Искусительницы скачать торрент
      Искусительницы смотреть онлайн
      Cкачать фильм Искусительницы бесплатно
      Искусительницы скачать торрент в хорошем качестве
      Искусительницы смотреть онлайн бесплатно в хорошем качестве


      Вы не можете начинать темы
      Вы не можете отвечать на сообщения
      Вы не можете редактировать свои сообщения
      Вы не можете удалять свои сообщения
      Вы не можете голосовать в опросах
      Вы не можете прикреплять файлы к сообщениям
      Вы можете скачивать файлы