MEGA NEWS Получи личный уникальный адрес сайта и защити себя от блокировок. Внимание количество ограничено!!!

iTunes

1+1

iTunes

мы

iTunes

1

iTunes

Чернобыль

iTunes

Ральф против интернета

Лицензия

ПШазам

Лицензия

Игра престолов

Лицензия

30
pack

ВАЖНО

!!Акция!!

Alien_RageХит недели

RePack

Resident Evil 21

ИГРА 18+

pack

RePack

Metro:Exodus

!!Акция!!

Alien_Rage

RePack

fifa19

RePack

Assassins Creed: Odyssey

RePack

NEED FOR SPEED™ PAYBACK

3 сезон

9 сезон

Бесстыжие 9 сезон

Все сериалы

все сериалы на PB.wtf

RePack

FAR CRY 5
Ребята, катастрофически не хватает 1900р. для оплаты серверов за АВГУСТ (всвязи с блокировками трафик упал в 3 раза), 1-2р., выручайте.
  

Бонни и Клайд / Bonnie and Clyde (Артур Пенн / Arthur Penn) [1967, США, драма, криминал, биография, BDRip] [Дубляж (Варус Видео)] + [ENG] pb.wtf

Бонни и Клайд через торрент pb.wtf

Размер: 1.46 GB | Добавлен: 5 лет 1 мес. назад | Торрент скачан:83 раза
Скачать  

18-09-2014 06:20 Бонни и Клайд Скачать торрент  

Информация о фильме
Название: Бонни и Клайд
Оригинальное название: Bonnie and Clyde
Год выхода: 1967
Жанр: драма, криминал, биография
Режиссер: Артур Пенн / Arthur Penn
В ролях: Уоррен Битти, Фэй Данауэй, Майкл Дж. Поллард, Джин Хэкмен, Эстелл Парсонс, Денвер Пайл, Даб Тейлор, Эванс Эванс, Джин Уайлдер, Марта Эдкок

Описание: Молодые и отчаянные любовники Бонни и Клайд легко и изящно грабят банки в 30-е годы XX века. Но их романтизм и «робингудство» довольно быстро перерастают в лужи и реки крови, в хаос и грязь смерти, а судьба пророчит им неудачу…

Автор рипа: Deadmauvlad

Выпущено: США
Продолжительность: 01:50:45
Перевод: Профессиональный Дублированный (Дубляж) [Варус Видео] + Оригинальная звуковая дорожка

Файл:
Формат: AVI
Качество: BDRip (источник: grab777/ Blu-ray Remux / 1080p)
Видео: 720x400 (1.80:1), 23.976 fps, XviD build 73 ~1420 kbps avg, 0.20 bit/pixel
Аудио #1: 48 kHz, AC3 Dolby Digital, 2/0 (L,R) ch, ~224 kbps [DUB]
Аудио #2: 48 kHz, AC3 Dolby Digital, 1/0 (C) ch, ~224 kbps [ENG]
Размер: 1490 Mb = 1.45 GB
Скачать: Семпл

Код:

Общее
Полное имя                               : C:\Users\deadmau95\Documents\Bonni.i.Klaid.1967.D.BDRip.Deadmauvlad.avi
Формат                                   : AVI
Формат/Информация                        : Audio Video Interleave
Размер файла                             : 1,46 Гбайт
Продолжительность                        : 1 ч. 50 м.
Общий поток                              : 1883 Кбит/сек
Название фильма                          : Bonni.i.Klaid.1967.D.BDRip.Deadmauvlad
Режиссёр                                 : Deadmauvlad
Жанр                                     : драма
Программа кодирования                    : VirtualDubMod 1.5.10.3 | www.virtualdub-fr.org || (build 2550/release)
Формат оригинала/Имя                     : Фильм
Правообладатель                          : Goldenshara
Примечание                               : Дубляж Варус

Видео
Идентификатор                            : 0
Формат                                   : MPEG-4 Visual
Профиль формата                          : Advanced Simple@L5
Параметр BVOP формата                    : 1
Параметр QPel формата                    : Нет
Параметр GMC формата                     : Без точки перехода
Параметр матрицы формата                 : Выборочная
Идентификатор кодека                     : XVID
Идентификатор кодека/Подсказка           : XviD
Продолжительность                        : 1 ч. 50 м.
Битрейт                                  : 1421 Кбит/сек
Ширина                                   : 720 пикселей
Высота                                   : 400 пикселей
Соотношение сторон                       : 16:9
Частота кадров                           : 23,976 кадра/сек
Цветовое пространство                    : YUV
Субдискретизация насыщенности            : 4:2:0
Битовая глубина                          : 8 бит
Тип развёртки                            : Прогрессивная
Метод сжатия                             : С потерями
Бит/(Пиксели*Кадры)                      : 0.206
Размер потока                            : 1,10 Гбайт (75%)
Библиотека кодирования                   : XviD 73

Аудио #1
Идентификатор                            : 1
Формат                                   : AC-3
Формат/Информация                        : Audio Coding 3
Расширение режима                        : CM (complete main)
Параметр Endianness формата              : Big
Идентификатор кодека                     : 2000
Продолжительность                        : 1 ч. 50 м.
Вид битрейта                             : Постоянный
Битрейт                                  : 224 Кбит/сек
Каналы                                   : 2 канала
Расположение каналов                     : Front: L R
Частота                                  : 48,0 КГц
Битовая глубина                          : 16 бит
Метод сжатия                             : С потерями
Размер потока                            : 177 Мбайт (12%)
Выравнивание                             : Разделение по промежуткам
Продолжительность промежутка             : 42  мс. (1,00 видеокадр)
Время предзагрузки промежутка            : 500  мс.

Аудио #2
Идентификатор                            : 2
Формат                                   : AC-3
Формат/Информация                        : Audio Coding 3
Расширение режима                        : CM (complete main)
Параметр Endianness формата              : Big
Идентификатор кодека                     : 2000
Продолжительность                        : 1 ч. 50 м.
Вид битрейта                             : Постоянный
Битрейт                                  : 224 Кбит/сек
Каналы                                   : 1 канал
Расположение каналов                     : Front: C
Частота                                  : 48,0 КГц
Битовая глубина                          : 16 бит
Метод сжатия                             : С потерями
Размер потока                            : 177 Мбайт (12%)
Выравнивание                             : Разделение по промежуткам
Продолжительность промежутка             : 42  мс. (1,00 видеокадр)
Время предзагрузки промежутка            : 500  мс.

скриншот   скриншот   скриншот   скриншот   скриншот   скриншот  
pb.wtf



Скачать Бонни и Клайд через торрент http://pic.kartinco.top/images/7/u3oyl.jpg Скачать фильм Бонни и Клайд через торрент бесплантно в хорошем качестве Описание: Молодые и отчаянные любовники Бонни и Клайд легко и изящно грабят банки в 30-е годы XX века. Но их романтизм и «робингудство» ... 9.8 10 4
Info! Золотая раздача, скачанное не засчитывается.
Торрент: Зарегистрирован [2014-09-18 06:20] · скачан: 83 раз
Статус: √ проверено
Размер: 1.46 GB
Как cкачать? Как скачать Бонни и Клайд через торрент | qTorrent

% Раздел Тема Автор DL S | L
Порно фильмы с сюжетом [ 5.07 GB ] Бонни и Клайд / Bonny and Clide [2010 Feature Foreign Straight Pantyhose Porn Stars Spoofs & Parodies WEB-DL] nn99nn Скачать
1 | 0
Фильмы (Blu-ray, BD-Remux, HDDVD) [ 13.99 GB ] Бонни и Клайд / Bonnie and Clyde [1967 биография BDRemux 1080p] DUB Ворон Скачать
1 | 0
Зарубежные сериалы [ 3.27 GB ] Бонни и Клайд / Bonnie and Clyde / Серии: 1-2 из 2 [2013 HDRip] [DVO] killermax2013 Скачать
1 | 0
Порно фильмы с сюжетом [ 744 MB ] Месть Бонни и Клайда / Revenge of Bonnie and Clyde [1994 Feature Foreign Straight Pantyhose Porn Stars DVDRip 480p] sheker187 Скачать
2 | 0
Порно фильмы с сюжетом [ 2.74 GB ] Бонни и Клайд / Bonny and Clide [2010 Feature Foreign Straight Pantyhose Porn Stars Spoofs & Parodies DVDRip 352p] sheker187 Скачать
1 | 0
Классика зарубежного кино [ 1.48 GB ] Бонни и Клайд / Bonnie and Clyde [1967 биография DVDRip] killermax2013 Скачать
1 | 0
Порно фильмы с сюжетом [ 988 MB ] Секреты Бонни и Клайда / Secrets of Bonnie and Clyde [1994 All Sex Feature DVDRip Оригинал] sheker187 Скачать
1 | 0


>> Регистрируемся здесь <<






Отзывы и комментарии о схеме читаем и пишем здесь: ---> Отзывы и комментарии о схеме

Новые благодарочки в телеграм довольных пользователей:
скриншот   скриншот   скриншот   скриншот   скриншот

18-09-2014 06:37 Бонни и Клайд Скачать торрент  

Скачаю попоже обязательно, и вырежу английскую дорогу ))) не любитель когда оригинальные дороги или авторские присутствуют в раздаче )))pb.wtf



    Дорогой пользователь! Огромная просьба, поблагодарите релизера, оцените раздачу и оставьте свои комментарий, если Вы скачали Бонни и Клайд через торрент бесплатно! Внесите свою лепту в развитие PiratBit!
    Комментировать посты могут только пользователи прошедшие не сложную регистрацию
    Показать сообщения:    

    Бонни и Клайд через торрент
    Скачать бесплатно Бонни и Клайд
    Бонни и Клайд скачать торрент
    Бонни и Клайд смотреть онлайн
    Cкачать фильм Бонни и Клайд бесплатно
    Бонни и Клайд скачать торрент в хорошем качестве
    Бонни и Клайд смотреть онлайн бесплатно в хорошем качестве


    Вы не можете начинать темы
    Вы не можете отвечать на сообщения
    Вы не можете редактировать свои сообщения
    Вы не можете удалять свои сообщения
    Вы не можете голосовать в опросах
    Вы не можете прикреплять файлы к сообщениям
    Вы можете скачивать файлы