Всегда рабочее зеркало без VPN и Proxy просто перед .vidak.icu напиши любое слово или цифру, Пример http://cmf0.vidak.icu

Лицензия

MVO

1 сезон

1

1 сезон

iTunes

1 сезон

13

1 сезон

Deluxe

pack

Рекомендуем

Repack

30

ВАЖНО

RePack

MK11

RePack

jed

RePack

fifa19

RePack

RDR2

RePack

NEED FOR SPEED™ PAYBACK

Кинопоиск HD

6 сезон

 Острые козырьки 6 сезон

Все сериалы

все сериалы на PB.wtf

RePack

FAR CRY 5
  
Magnet ссылка

Скуби-Ду и лох-несское чудовище / Scooby-Doo and the Loch Ness Monster (Скотт Джералдс, Джо Сичта) [2004 г., мультфильм, комедия, детектив, WEB-DLRip, Дубляж, Лицензия] pb.wtf

Скуби-Ду и лох-несское чудовище через торрент pb.wtf

Размер: 1.36 GB | Добавлен: 7 лет 10 мес. назад | Торрент скачан:205 раз
Смотреть онлайн Скуби-Ду и лох-несское чудовище | Скачать    Ребята, помогите собрать деньги на оплату серверов!!!

18-09-2014 06:54 Скуби-Ду и лох-несское чудовище Скачать торрент  

Скуби-Ду и лох-несское чудовище / Scooby-Doo and the Loch Ness Monster
Год выпуска: 2004
Страна: Сша
Жанр: мультфильм, комедия, детектив
Продолжительность: 01:14:32
Перевод: Дубляж, Лицензия
Тип релиза: Лицензия

Режиссер: Скотт Джералдс, Джо Сичта
Продюссер: Джо Сичта
Сценарий: Джордж Доути IV, Эд Шарлак, Марк Турош, ...

Премьера в мире: 22 июня 2004



В ролях: Фрэнк Уэлкер,Кэйси Касэм,Минди Кон,Грэй ДеЛисл,Майкл Белл,Джефф Беннетт,Джон Ди Маджио,Фил ЛаМарр,Шина Истон

Описание: Ничего себе! На этот раз Скуби-Ду и его веселой команде из «Корпорации Тайн» предстоит путешествие к берегам Шотландии, где их поджидает встреча со знаменитым монстром из озера Лох-Несс! Существует ли подводное чудище в действительности?

Казалось бы, после того, как что-то гигантское и жуткое появилось перед окном родового замка Дафны, все сомнения в реальности длинношеего страшилы рассеялись…

Сможет ли Скуби-Ду и наш любимый отряд паранормальных детективов разгадать один из самых знаменитых секретов в истории человечества и пролить свет на древнюю шотландскую тайну? Об этом Вы узнаете, посмотрев новые захватывающие анимационные приключения забавного Скуби-Ду и его весёлых друзей!

Качество: WEB-DLRip
Формат: AVI
Видео кодек: XviD
Аудио кодек: AC3
Видео: 720x400 (1.80:1), 23.976 fps, XviD build 73 ~2281 kbps avg, 0.33 bit/pixel
Аудио#1: Русский 48 kHz, AC3 Dolby Digital, 2/0 (L,R) ch, ~192 kbps [Дубляж]
Аудио#2: Английский 48 kHz, AC3 Dolby Digital, 3/2 (L,C,R,l,r) + LFE ch, ~384 kbps [Оригинал]
Релиз от: Deadmauvlad
скриншот   скриншот   скриншот   скриншот   скриншот  

Общее
Полное имя : D:\Рипы выкладка [Deadmauvlad]\Рипы готовые\Scooby.Doo.and.the.Loch.Ness.Monster.2004.WEB-DLRip.1.36GB.Deadmauvlad.Rus.Eng.avi
Формат : AVI
Формат/Информация : Audio Video Interleave
Размер файла : 1,36 Гбайт
Продолжительность : 1 ч. 14 м.
Общий поток : 2611 Кбит/сек
Название фильма : Scooby.Doo.and.the.Loch.Ness.Monster.2004.WEB-DLRip.1.36GB.Deadmauvlad.Rus.Eng
Режиссёр : Deadmauvlad
Жанр : Genre_00+
Программа кодирования : VirtualDubMod 1.5.10.3 | www.virtualdub-fr.org || (build 2550/release)
Библиотека кодирования : VirtualDubMod build 2550/release
Формат оригинала/Имя : Мультфильм
Правообладатель : Goldenshara

Видео
Идентификатор : 0
Формат : MPEG-4 Visual
Профиль формата : Advanced [email protected]
Параметр BVOP формата : 1
Параметр QPel формата : Нет
Параметр GMC формата : Без точки перехода
Параметр матрицы формата : Выборочная
Идентификатор кодека : XVID
Идентификатор кодека/Подсказка : XviD
Продолжительность : 1 ч. 14 м.
Битрейт : 2021 Кбит/сек
Ширина : 720 пикселей
Высота : 400 пикселей
Соотношение сторон : 16:9
Частота кадров : 23,976 кадра/сек
Цветовое пространство : YUV
Субдискретизация насыщенности : 4:2:0
Битовая глубина : 8 бит
Тип развёртки : Прогрессивная
Метод сжатия : С потерями
Бит/(Пиксели*Кадры) : 0.293
Размер потока : 1,05 Гбайт (77%)
Библиотека кодирования : XviD 73

Аудио #1
Идентификатор : 1
Формат : AC-3
Формат/Информация : Audio Coding 3
Расширение режима : CM (complete main)
Параметр Endianness формата : Big
Идентификатор кодека : 2000
Продолжительность : 1 ч. 14 м.
Вид битрейта : Постоянный
Битрейт : 192 Кбит/сек
Каналы : 2 канала
Расположение каналов : Front: L R
Частота : 48,0 КГц
Битовая глубина : 16 бит
Метод сжатия : С потерями
Размер потока : 102 Мбайт (7%)
Выравнивание : Разделение по промежуткам
Продолжительность промежутка : 42 мс. (1,00 видеокадр)
Время предзагрузки промежутка : 500 мс.

Аудио #2
Идентификатор : 2
Формат : AC-3
Формат/Информация : Audio Coding 3
Расширение режима : CM (complete main)
Параметр Endianness формата : Big
Идентификатор кодека : 2000
Продолжительность : 1 ч. 14 м.
Вид битрейта : Постоянный
Битрейт : 384 Кбит/сек
Каналы : 6 каналов
Расположение каналов : Front: L C R, Side: L R, LFE
Частота : 48,0 КГц
Битовая глубина : 16 бит
Метод сжатия : С потерями
Размер потока : 205 Мбайт (15%)
Выравнивание : Разделение по промежуткам
Продолжительность промежутка : 42 мс. (1,00 видеокадр)
Время предзагрузки промежутка : 500 мс.

pb.wtf



Скачать Скуби-Ду и лох-несское чудовище через торрент https://pic1.kartinco.top/images/71/i7uur.jpg Скачать, смотреть онлайн Скуби-Ду и лох-несское чудовище бесплантно в хорошем качестве Описание: Ничего себе! На этот раз Скуби-Ду и его веселой команде из «Корпорации Тайн» предстоит путешествие к берегам Шотландии, где их ... 10 10 7
Торрент: Зарегистрирован [2014-09-18 06:54] · скачан: 205 раз
Статус: √ проверено
Размер: 1.36 GB
Как cкачать? Как скачать Скуби-Ду и лох-несское чудовище через торрент | UTorrent

% Раздел Тема Автор DL S | L
Иностранные мультфильмы [ 746 MB ] Скуби Ду и Лох-несское чудовище / Scooby-Doo and the Loch Ness Monster [2004 мультфильм DVDRip] ACFIORENTINA Скачать
1 | 0

28-11-2019 20:33  

Отключить вcю реклaмy на сайте

18-09-2014 07:06 Скуби-Ду и лох-несское чудовище Скачать торрент  

Один из моих любимых мультиков )pb.wtf



    Дорогой пользователь! Огромная просьба, поблагодарите релизера, оцените раздачу и оставьте свои комментарий, если Вы скачали Скуби-Ду и лох-несское чудовище через торрент бесплатно!
    Комментировать посты могут только пользователи прошедшие не сложную регистрацию
    Показать сообщения:    

    Скуби-Ду и лох-несское чудовище через торрент
    Скачать бесплатно Скуби-Ду и лох-несское чудовище
    Скуби-Ду и лох-несское чудовище скачать торрент
    Скуби-Ду и лох-несское чудовище смотреть онлайн
    Cкачать фильм Скуби-Ду и лох-несское чудовище бесплатно
    Скуби-Ду и лох-несское чудовище скачать торрент в хорошем качестве
    Скуби-Ду и лох-несское чудовище смотреть онлайн бесплатно в хорошем качестве


    Вы не можете начинать темы
    Вы не можете отвечать на сообщения
    Вы не можете редактировать свои сообщения
    Вы не можете удалять свои сообщения
    Вы не можете голосовать в опросах
    Вы не можете прикреплять файлы к сообщениям
    Вы можете скачивать файлы