Ссылка на приватное зеркало нашего сайта всего за 1$. Внимание количество ограничено!!!

2 сезон

iTunes

1 сезон

1

iTunes

iTunes

iTunes

1 сезон

RePack

30

ИГРА 18+

pack

ВАЖНО

!!Акция!!

Alien_RageХит недели

RePack

MK11
pack

Забери бонус

RePack

jed

!!Акция!!

Alien_Rage

RePack

fifa19

RePack

Assassins Creed: Odyssey

RePack

NEED FOR SPEED™ PAYBACK

4 сезон

9 сезон

Бесстыжие 9 сезон

Все сериалы

все сериалы на PB.wtf

RePack

FAR CRY 5
  

Последний подарок / The Ultimate Gift (Майкл Саджбел) [2006г., драма, мелодрама, семейный, BDRip] MVO pb.wtf

Последний подарок через торрент pb.wtf

Качают: 1 [ 0 KB/s ]
Размер: 2.3 GB | Добавлен: 6 лет 1 мес. назад | Торрент скачан:114 раз
Скачать  

18-09-2014 07:00 Последний подарок Скачать торрент  

Последний подарок / The Ultimate Gift

Год выпуска: 2006
Страна: США
Жанр: драма, мелодрама, семейный
Продолжительность: 01:57:11
Перевод: профессиональный многоголосый
Субтитры: русские, английские (для слабослышащих) (все отдельно)

Режиссёр: Майкл Саджбел

В ролях: Джеймс Гарнер, Билл Коббс, Ли Меривезер, Джордж Ли, Бретт Райс, Д. Дэвид Морин, Эбигейл Бреслин, Али Хиллис, Дрю Фуллер, Мирсеа Монро, Донна Черри, Катрин МакГухан, Марк Джой, Мэл Фэйр, Алесия Бреди Куркуру, Френсис Исаак, Дэниэл Барбо, Кеннет А. Фри мл., Тоня Шаффлер, Роджер В. Дюрретт, Дэвид Темпл, Эрик Джиллилэнд, Брайан Деннехи, Майкл Розандер, Тим Парати, Дин Канеширо, Тэмми Фонтейн, Том Кондер, Майк Пневски, Элиша Т. Минтер

Описание: Джейсон, избалованный плейбой, купается в деньгах своего супербогатого дедушки Говарда Стивенса, что не мешает ему ненавидеть своего благодетеля. Молодой кутила не сомневается, что со смертью Говарда всё состояние моментально перейдёт в его карман, но, покинув этот мир, старик оставляет Джейсону неожиданный подарок. Юноша получит наследство, только если справится с двенадцатью заданиями, которые для богача с претензиями станут испытанием на грани возможного. Джейсона ждут 12 незабываемых уроков жизни. Сдаст ли он самый трудный экзамен, который придумал для него хитрый Говард Стивенс?



Качество: BDRip [Исходник -- Викс (Рутор)] Сравнение с исходником
Формат: AVI
Видео кодек: XviD
Аудио кодек: AC3
Видео: 720x384, 1906 kbps, 23.976 кадра/сек
Аудио: русский, AC3, 448 kbps, 6 ch, 48 kHz [Профессиональный многоголосый]

Отдельный файл
Аудио: английский, AC3, 448 kbps, 6 ch, 48 kHz [Оригинал]
Общее
Полное имя : D:VideoPoslednij podarok.2006.BDRipPoslednij podarok.2006.BDRip.avi
Формат : AVI
Формат/Информация : Audio Video Interleave
Размер файла : 1,93 Гбайт
Продолжительность : 1 ч. 57 м.
Общий поток : 2364 Кбит/сек
Программа кодирования : VirtualDubMod 1.5.10.2 (build 2540/release)
Библиотека кодирования : VirtualDubMod build 2540/release

Видео
Идентификатор : 0
Формат : MPEG-4 Visual
Профиль формата : Advanced Simple@L5
Параметр BVOP формата : 1
Параметр QPel формата : Нет
Параметр GMC формата : Без точки перехода
Параметр матрицы формата : Default (H.263)
Режим смешивания : Сжатый битовый поток
Идентификатор кодека : XVID
Идентификатор кодека/Подсказка : XviD
Продолжительность : 1 ч. 57 м.
Битрейт : 1906 Кбит/сек
Ширина : 720 пикселей
Высота : 384 пикселя
Соотношение сторон : 1,85:1
Частота кадров : 23,976 кадра/сек
Цветовое пространство : YUV
Субдискретизация насыщенности : 4:2:0
Битовая глубина : 8 бит
Тип развёртки : Прогрессивная
Метод сжатия : С потерями
Бит/(Пиксели*Кадры) : 0.288
Размер потока : 1,56 Гбайт (81%)
Библиотека кодирования : XviD 1.2.1 (UTC 2008-12-04)

Аудио
Идентификатор : 1
Формат : AC-3
Формат/Информация : Audio Coding 3
Расширение режима : CM (complete main)
Параметр Endianness формата : Big
Идентификатор кодека : 2000
Продолжительность : 1 ч. 57 м.
Вид битрейта : Постоянный
Битрейт : 448 Кбит/сек
Каналы : 6 каналов
Расположение каналов : Front: L C R, Side: L R, LFE
Частота : 48,0 КГц
Битовая глубина : 16 бит
Метод сжатия : С потерями
Размер потока : 376 Мбайт (19%)
Выравнивание : Разделение по промежуткам
Продолжительность промежутка : 42 мс. (1,00 видеокадр)
Время предзагрузки промежутка : 500 мс.

Общее
Полное имя : D:VideoPoslednij podarok.2006.BDRipPoslednij podarok.2006.eng.SDH.srt
Размер файла : 232 Кбайт

Общее
Полное имя : D:VideoPoslednij podarok.2006.BDRipPoslednij podarok.2006.Original.eng.ac3
Формат : AC-3
Формат/Информация : Audio Coding 3
Размер файла : 376 Мбайт
Продолжительность : 1 ч. 57 м.
Режим общего битрейта : Постоянный
Общий поток : 448 Кбит/сек

Аудио
Формат : AC-3
Формат/Информация : Audio Coding 3
Расширение режима : CM (complete main)
Параметр Endianness формата : Big
Продолжительность : 1 ч. 57 м.
Вид битрейта : Постоянный
Битрейт : 448 Кбит/сек
Каналы : 6 каналов
Расположение каналов : Front: L C R, Side: L R, LFE
Частота : 48,0 КГц
Битовая глубина : 16 бит
Метод сжатия : С потерями
Размер потока : 376 Мбайт (100%)

Общее
Полное имя : D:VideoPoslednij podarok.2006.BDRipPoslednij podarok.2006.rus.srt
Размер файла : 164 Кбайт
pb.wtf



Скачать Последний подарок через торрент http://i66.fastpic.ru/big/2014/0918/a2/62c240701c8784f65c570f5c9fe65aa2.jpg Скачать фильм Последний подарок через торрент бесплантно в хорошем качестве Описание: Джейсон, избалованный плейбой, купается в деньгах своего супербогатого дедушки Говарда Стивенса, что не мешает ему ненавидеть ... 9.7 10 3
Торрент: Зарегистрирован [2014-09-18 07:00] · скачан: 114 раз
Статус: √ проверено
Размер: 2.3 GB
Как cкачать? Как скачать Последний подарок через торрент | qTorrent

% Раздел Тема Автор DL S | L
Фильмы [HD 720p, 1080p] (Хороший звук DUB, MVO) [ 12.15 GB ] Последний подарок / The Ultimate Gift [2006 BDRip 1080p] MVO msltel Скачать
1 | 0
Фильмы [HD 720p, 1080p] (Хороший звук DUB, MVO) [ 5.58 GB ] Последний подарок / The Ultimate Gift [2006 BDRip 720p] MVO msltel Скачать
1 | 0
Фильмы 2006-2008 [ 3.31 GB ] Последний подарок / The Ultimate Gift [2006 BDRip-AVC MVO] [] GEKADOL Скачать
1 | 0

28-11-2019 20:33  

Отключить всю рекламу на сайте

    Дорогой пользователь! Огромная просьба, поблагодарите релизера, оцените раздачу и оставьте свои комментарий, если Вы скачали Последний подарок через торрент бесплатно! Внесите свою лепту в развитие PiratBit!
    Комментировать посты могут только пользователи прошедшие не сложную регистрацию
    Показать сообщения:    

    Последний подарок через торрент
    Скачать бесплатно Последний подарок
    Последний подарок скачать торрент
    Последний подарок смотреть онлайн
    Cкачать фильм Последний подарок бесплатно
    Последний подарок скачать торрент в хорошем качестве
    Последний подарок смотреть онлайн бесплатно в хорошем качестве


    Вы не можете начинать темы
    Вы не можете отвечать на сообщения
    Вы не можете редактировать свои сообщения
    Вы не можете удалять свои сообщения
    Вы не можете голосовать в опросах
    Вы не можете прикреплять файлы к сообщениям
    Вы можете скачивать файлы