Ссылка на приватное зеркало нашего сайта всего за 1$. Внимание количество ограничено!!!

2 сезон

iTunes

1 сезон

1

iTunes

iTunes

iTunes

1 сезон

RePack

30

ИГРА 18+

pack

ВАЖНО

!!Акция!!

Alien_RageХит недели

RePack

MK11
pack

Забери бонус

RePack

jed

!!Акция!!

Alien_Rage

RePack

fifa19

RePack

Assassins Creed: Odyssey

RePack

NEED FOR SPEED™ PAYBACK

4 сезон

9 сезон

Бесстыжие 9 сезон

Все сериалы

все сериалы на PB.wtf

RePack

FAR CRY 5
  

Последний подарок / The Ultimate Gift (Майкл Саджбел) [2006г., драма, мелодрама, семейный, BDRip 720p] MVO pb.wtf

Последний подарок через торрент pb.wtf

Размер: 5.58 GB | Добавлен: 6 лет 1 мес. назад | Торрент скачан:92 раза
Скачать  

18-09-2014 07:10 Последний подарок Скачать торрент  

Последний подарок / The Ultimate Gift

Год выпуска: 2006
Страна: США
Жанр: драма, мелодрама, семейный
Продолжительность: 01:57:11
Перевод: профессиональный многоголосый
Субтитры: русские, английские (для слабослышащих)

Режиссёр: Майкл Саджбел

В ролях: Джеймс Гарнер, Билл Коббс, Ли Меривезер, Джордж Ли, Бретт Райс, Д. Дэвид Морин, Эбигейл Бреслин, Али Хиллис, Дрю Фуллер, Мирсеа Монро, Донна Черри, Катрин МакГухан, Марк Джой, Мэл Фэйр, Алесия Бреди Куркуру, Френсис Исаак, Дэниэл Барбо, Кеннет А. Фри мл., Тоня Шаффлер, Роджер В. Дюрретт, Дэвид Темпл, Эрик Джиллилэнд, Брайан Деннехи, Майкл Розандер, Тим Парати, Дин Канеширо, Тэмми Фонтейн, Том Кондер, Майк Пневски, Элиша Т. Минтер

Описание: Джейсон, избалованный плейбой, купается в деньгах своего супербогатого дедушки Говарда Стивенса, что не мешает ему ненавидеть своего благодетеля. Молодой кутила не сомневается, что со смертью Говарда всё состояние моментально перейдёт в его карман, но, покинув этот мир, старик оставляет Джейсону неожиданный подарок. Юноша получит наследство, только если справится с двенадцатью заданиями, которые для богача с претензиями станут испытанием на грани возможного. Джейсона ждут 12 незабываемых уроков жизни. Сдаст ли он самый трудный экзамен, который придумал для него хитрый Говард Стивенс?



Качество: BDRip 720p [Исходник -- Викс (Рутор)] Сравнение с исходником
Формат: MKV
Видео кодек: H.264
Аудио кодек: AC3
Видео: 1280x690, 5767 kbps, 23.976 кадра/сек
Аудио 1: русский, AC3, 448 kbps, 6 ch, 48 kHz [Профессиональный многоголосый]
Аудио 2: английский, AC3, 448 kbps, 6 ch, 48 kHz [Оригинал]
Общее
Уникальный идентификатор : 208355091267516508550568557944574584304 (0x9CBFBB1E79A64AFDBD4F23B0D2F025F0)
Полное имя : D:VideoPoslednij podarok.2006.BDRip.720p.mkv
Формат : Matroska
Версия формата : Version 4 / Version 2
Размер файла : 5,58 Гбайт
Продолжительность : 1 ч. 57 м.
Общий поток : 6798 Кбит/сек
Дата кодирования : UTC 2014-07-28 10:43:21
Программа кодирования : mkvmerge v6.9.1 ('Blue Panther') 64bit built on Apr 18 2014 18:23:38
Библиотека кодирования : libebml v1.3.0 + libmatroska v1.4.1

Видео
Идентификатор : 1
Формат : AVC
Формат/Информация : Advanced Video Codec
Профиль формата : High@L4.1
Параметр CABAC формата : Да
Параметр ReFrames формата : 9 кадров
Идентификатор кодека : V_MPEG4/ISO/AVC
Продолжительность : 1 ч. 57 м.
Битрейт : 5767 Кбит/сек
Ширина : 1280 пикселей
Высота : 690 пикселей
Соотношение сторон : 1,85:1
Режим частоты кадров : Постоянный
Частота кадров : 23,976 кадра/сек
Цветовое пространство : YUV
Субдискретизация насыщенности : 4:2:0
Битовая глубина : 8 бит
Тип развёртки : Прогрессивная
Бит/(Пиксели*Кадры) : 0.272
Размер потока : 4,73 Гбайт (85%)
Заголовок : BDRip -- STarankov
Библиотека кодирования : x264 core 142 r2431 ac76440
Настройки программы : cabac=1 / ref=9 / deblock=1:-1:-1 / analyse=0x3:0x113 / me=umh / subme=10 / psy=1 / psy_rd=1.00:0.15 / mixed_ref=1 / me_range=32 / chroma_me=1 / trellis=2 / 8x8dct=1 / cqm=0 / deadzone=21,11 / fast_pskip=0 / chroma_qp_offset=-3 / threads=6 / lookahead_threads=1 / sliced_threads=0 / nr=0 / decimate=1 / interlaced=0 / bluray_compat=0 / constrained_intra=0 / bframes=8 / b_pyramid=2 / b_adapt=2 / b_bias=0 / direct=1 / weightb=1 / open_gop=0 / weightp=2 / keyint=230 / keyint_min=23 / scenecut=40 / intra_refresh=0 / rc_lookahead=40 / rc=crf / mbtree=0 / crf=18.0 / qcomp=0.60 / qpmin=0 / qpmax=69 / qpstep=4 / vbv_maxrate=40000 / vbv_bufsize=50000 / crf_max=0.0 / nal_hrd=none / filler=0 / ip_ratio=1.40 / pb_ratio=1.30 / aq=1:1.00
Язык : English
Default : Да
Forced : Нет

Аудио #1
Идентификатор : 2
Формат : AC-3
Формат/Информация : Audio Coding 3
Расширение режима : CM (complete main)
Параметр Endianness формата : Big
Идентификатор кодека : A_AC3
Продолжительность : 1 ч. 57 м.
Вид битрейта : Постоянный
Битрейт : 448 Кбит/сек
Каналы : 6 каналов
Расположение каналов : Front: L C R, Side: L R, LFE
Частота : 48,0 КГц
Битовая глубина : 16 бит
Метод сжатия : С потерями
Размер потока : 376 Мбайт (7%)
Заголовок : MVO
Язык : Russian
Default : Да
Forced : Нет

Аудио #2
Идентификатор : 3
Формат : AC-3
Формат/Информация : Audio Coding 3
Расширение режима : CM (complete main)
Параметр Endianness формата : Big
Идентификатор кодека : A_AC3
Продолжительность : 1 ч. 57 м.
Вид битрейта : Постоянный
Битрейт : 448 Кбит/сек
Каналы : 6 каналов
Расположение каналов : Front: L C R, Side: L R, LFE
Частота : 48,0 КГц
Битовая глубина : 16 бит
Метод сжатия : С потерями
Размер потока : 376 Мбайт (7%)
Заголовок : Original
Язык : English
Default : Нет
Forced : Нет

Текст #1
Идентификатор : 4
Формат : UTF-8
Идентификатор кодека : S_TEXT/UTF8
Идентификатор кодека/Информация : UTF-8 Plain Text
Заголовок : русский
Язык : Russian
Default : Нет
Forced : Нет

Текст #2
Идентификатор : 5
Формат : UTF-8
Идентификатор кодека : S_TEXT/UTF8
Идентификатор кодека/Информация : UTF-8 Plain Text
Заголовок : английский (для слабослышащих)
Default : Нет
Forced : Нет

---[Information] [28.07.2014 9:00:28] raw [info]: 1280x690p 1:1 @ 24000/1001 fps (cfr)
---[Information] [28.07.2014 9:00:28] x264 [info]: using SAR=1/1
---[Information] [28.07.2014 9:00:28] x264 [info]: using cpu capabilities: MMX2 SSE2Fast SSSE3 SSE4.2
---[Information] [28.07.2014 9:00:28] x264 [info]: profile High, level 4.1
---[Information] [28.07.2014 17:28:46] x264 [info]: frame I:1538 Avg QP:16.48 size:113303
---[Information] [28.07.2014 17:28:46] x264 [info]: frame P:30388 Avg QP:17.47 size: 54621
---[Information] [28.07.2014 17:28:46] x264 [info]: frame B:136668 Avg QP:19.56 size: 24593
---[Information] [28.07.2014 17:28:46] x264 [info]: consecutive B-frames: 1.3% 1.1% 2.3% 10.6% 15.2% 44.2% 13.7% 5.1% 6.6%
---[Information] [28.07.2014 17:28:46] x264 [info]: mb I I16..4: 13.2% 69.2% 17.6%
---[Information] [28.07.2014 17:28:46] x264 [info]: mb P I16..4: 2.5% 15.6% 2.4% P16..4: 29.2% 25.0% 14.9% 0.0% 0.0% skip:10.3%
---[Information] [28.07.2014 17:28:46] x264 [info]: mb B I16..4: 0.2% 3.3% 0.2% B16..8: 35.4% 14.6% 4.4% direct: 9.0% skip:32.9% L0:45.9% L1:38.4% BI:15.7%
---[Information] [28.07.2014 17:28:46] x264 [info]: 8x8 transform intra:80.2% inter:45.2%
---[Information] [28.07.2014 17:28:46] x264 [info]: coded y,uvDC,uvAC intra: 91.1% 72.8% 44.1% inter: 35.7% 17.4% 1.3%
---[Information] [28.07.2014 17:28:46] x264 [info]: i16 v,h,dc,p: 28% 5% 33% 35%
---[Information] [28.07.2014 17:28:46] x264 [info]: i8 v,h,dc,ddl,ddr,vr,hd,vl,hu: 13% 9% 20% 8% 11% 10% 10% 10% 11%
---[Information] [28.07.2014 17:28:46] x264 [info]: i4 v,h,dc,ddl,ddr,vr,hd,vl,hu: 28% 7% 6% 8% 12% 11% 10% 9% 10%
---[Information] [28.07.2014 17:28:46] x264 [info]: i8c dc,h,v,p: 41% 26% 20% 12%
---[Information] [28.07.2014 17:28:46] x264 [info]: Weighted P-Frames: Y:3.2% UV:1.8%
---[Information] [28.07.2014 17:28:46] x264 [info]: ref P L0: 39.2% 10.4% 20.7% 7.3% 7.4% 4.6% 5.0% 2.5% 2.9% 0.1% 0.0%
---[Information] [28.07.2014 17:28:46] x264 [info]: ref B L0: 61.4% 15.4% 8.6% 5.2% 3.8% 3.3% 1.7% 0.5%
---[Information] [28.07.2014 17:28:46] x264 [info]: ref B L1: 89.9% 10.1%
---[Information] [28.07.2014 17:28:46] x264 [info]: kb/s:5910.54
---[Information] [28.07.2014 17:28:46] encoded 168594 frames, 5.53 fps, 5910.54 kb/s
--[Information] [28.07.2014 17:28:46] Final statistics
---[Information] [28.07.2014 17:28:46] Constant Quality Mode: Quality 18 computed...
---[Information] [28.07.2014 17:28:46] Video Bitrate Obtained (approximate): 5912 kbit/s
--[Information] [28.07.2014 17:28:46] MediaInfo
---[Information] [28.07.2014 17:28:46] File: D:RipPoslednij podarok.2006.BDRipPoslednij podarok.2006.BDRip.720p.mkv
pb.wtf



Скачать Последний подарок через торрент http://i66.fastpic.ru/big/2014/0918/a2/62c240701c8784f65c570f5c9fe65aa2.jpg Скачать фильм Последний подарок через торрент бесплантно в хорошем качестве Описание: Джейсон, избалованный плейбой, купается в деньгах своего супербогатого дедушки Говарда Стивенса, что не мешает ему ненавидеть ... 10 10 4
Торрент: Зарегистрирован [2014-09-18 07:10] · скачан: 92 раз
Статус: √ проверено
Размер: 5.58 GB
Как cкачать? Как скачать Последний подарок через торрент | qTorrent

% Раздел Тема Автор DL S | L
Фильмы [HD 720p, 1080p] (Хороший звук DUB, MVO) [ 12.15 GB ] Последний подарок / The Ultimate Gift [2006 BDRip 1080p] MVO msltel Скачать
1 | 0
Фильмы 2010 [ 2.3 GB ] Последний подарок / The Ultimate Gift [2006 BDRip] MVO msltel Скачать
1 | 1
Фильмы 2006-2008 [ 3.31 GB ] Последний подарок / The Ultimate Gift [2006 BDRip-AVC MVO] [] GEKADOL Скачать
1 | 0

28-11-2019 20:33  

Отключить всю рекламу на сайте

    Дорогой пользователь! Огромная просьба, поблагодарите релизера, оцените раздачу и оставьте свои комментарий, если Вы скачали Последний подарок через торрент бесплатно! Внесите свою лепту в развитие PiratBit!
    Комментировать посты могут только пользователи прошедшие не сложную регистрацию
    Показать сообщения:    

    Последний подарок через торрент
    Скачать бесплатно Последний подарок
    Последний подарок скачать торрент
    Последний подарок смотреть онлайн
    Cкачать фильм Последний подарок бесплатно
    Последний подарок скачать торрент в хорошем качестве
    Последний подарок смотреть онлайн бесплатно в хорошем качестве


    Вы не можете начинать темы
    Вы не можете отвечать на сообщения
    Вы не можете редактировать свои сообщения
    Вы не можете удалять свои сообщения
    Вы не можете голосовать в опросах
    Вы не можете прикреплять файлы к сообщениям
    Вы можете скачивать файлы