Ссылка на приватное зеркало нашего сайта всего за 1$. Внимание количество ограничено!!!

2 сезон

iTunes

1 сезон

1

iTunes

iTunes

iTunes

1 сезон

RePack

30

ИГРА 18+

pack

ВАЖНО

!!Акция!!

Alien_RageХит недели

RePack

MK11
pack

Забери бонус

RePack

jed

!!Акция!!

Alien_Rage

RePack

fifa19

RePack

Assassins Creed: Odyssey

RePack

NEED FOR SPEED™ PAYBACK

4 сезон

9 сезон

Бесстыжие 9 сезон

Все сериалы

все сериалы на PB.wtf

RePack

FAR CRY 5
  

Обнимая небо / Сезон: 1 / Серии 1-12 из 12 (Милена Фадеева) [2014, Россия, драма, SATRip) pb.wtf

Обнимая небо через торрент pb.wtf

Размер: 7.03 GB | Добавлен: 6 лет 1 мес. назад | Торрент скачан:1135 раз
Скачать  

18-09-2014 08:21 Обнимая небо Скачать торрент  

Обнимая небо


  • Год выпуска: 2014
  • Страна: Россия
  • Жанр: драма
  • Продолжительность: 00:44:27(Серия)
  • Перевод: Не требуется

  • Режиссер: Милена Фадеева
  • В ролях:

    Александр Петров (Ваня Котов), Любовь Новикова, Даниил Страхов, Сергей Романович (Дима Косяков), Олеся Фаттахова (Анна Матюхина), Егор Долгополов, Захар Кабанов (Пашка), Евгений Никитин, Виктория Толстоганова, Екатерина Редникова, Анатолий Белый, Екатерина Никитина

  • Описание:
    Это история любви длиною в жизнь. Действие фильма начинается в 1985 году в военном гарнизоне, в котором дислоцируется полк истребительной авиации. Двух десятиклассников - дочь заместителя командира полка Женю Луговую и сына официантки лётной столовой Ваньку Котова - накрывает чувство первой взаимной любви. Жесткие драматические события разводят героев, их жизненные пути расходятся, и они теряют друг друга на долгие-долгие годы. Ванька Котов становится летчиком-испытателем, Женя Луговая - военным хирургом. Однажды судьба вновь сводит героев...
  • Рейтинг:



  • Качество: SATRip
  • Формат: :AVI
  • Видео кодек: XviD
  • Аудио кодек: MP3
  • Видео: 720x368 (1.957), 1683 kbps, 25 fps, 0,254 bpp
  • Аудио: 2.0 / 48 kHz / 192 kbps /
  • Релиз от: GEKADOL

    Не нашли то, что искали? Для вас "Стол заказов" "Жмём сюда!"

    Код:

    Внимание! Раздача ведётся путём добавления новых серий; при каждом добавлении создаётся новый торрент. Чтобы начать докачку новой серии, пользователям необходимо сделать следующее:
    (1) остановить скачивание,
    (2) удалить старый торрент у себя из клиента (старые серии удалять не надо),
    (3) скачать новый торрент и запустить его у себя в клиенте вместо старого, при этом указать клиенту путь в старую папку куда и должно происходить скачивание новых серий.
    Ваш клиент при этом должен произвести хеширование (проверку) старой папки (если не производит сам - помогите ему сделать это), и будет докачивать только те серии которых у вас ещё нет. Старые серии при этом не удаляются, а продолжают раздаваться!
    Eсли вы уже удалили старые серии, то предотвратить повторную закачку старых серий можно, отжав галочку в соответсвующих местах при запуске нового торрента. По возможности, желательно не удалять старые серии как можно дольше чтобы релизёр не столько продолжал раздавать старые серии, а смог сконцентрироваться на новых.


    Код:

    General
    Complete name                            : D:\Фильмы\Obnimaja.nebo.2014.SATRip.Files-x.GeneralFilm\09.Obnimaja.nebo.2014.SATRip.Files-x.GeneralFilm.avi
    Format                                   : AVI
    Format/Info                              : Audio Video Interleave
    File size                                : 600 MiB
    Duration                                 : 44mn 27s
    Overall bit rate                         : 1 886 Kbps
    Writing application                      : VirtualDubMod 1.5.10.3 | www.virtualdub-fr.org || (build 2550/release)
    Writing library                          : VirtualDubMod build 2550/release

    Video
    ID                                       : 0
    Format                                   : MPEG-4 Visual
    Format profile                           : Advanced Simple@L5
    Format settings, BVOP                    : 1
    Format settings, QPel                    : No
    Format settings, GMC                     : No warppoints
    Format settings, Matrix                  : Custom
    Codec ID                                 : XVID
    Codec ID/Hint                            : XviD
    Duration                                 : 44mn 27s
    Bit rate                                 : 1 684 Kbps
    Width                                    : 720 pixels
    Height                                   : 368 pixels
    Display aspect ratio                     : 1.957
    Frame rate                               : 25.000 fps
    Color space                              : YUV
    Chroma subsampling                       : 4:2:0
    Bit depth                                : 8 bits
    Scan type                                : Progressive
    Compression mode                         : Lossy
    Bits/(Pixel*Frame)                       : 0.254
    Stream size                              : 535 MiB (89%)
    Writing library                          : XviD 73

    Audio
    ID                                       : 1
    Format                                   : MPEG Audio
    Format version                           : Version 1
    Format profile                           : Layer 3
    Codec ID                                 : 55
    Codec ID/Hint                            : MP3
    Duration                                 : 44mn 27s
    Bit rate mode                            : Constant
    Bit rate                                 : 192 Kbps
    Channel(s)                               : 2 channels
    Sampling rate                            : 48.0 KHz
    Compression mode                         : Lossy
    Stream size                              : 61.1 MiB (10%)
    Alignment                                : Aligned on interleaves
    Interleave, duration                     : 40 ms (1.00 video frame)
    Interleave, preload duration             : 504 ms
    Writing library                          : LAME3.99r
    Encoding settings                        : -m s -V 4 -q 2 -lowpass 18.6 -b 192


    Скриншоты:
    скриншот   скриншот   скриншот   скриншот   скриншот  

    Раздача ведётся путём добавления новых серий. Добавлена 12 серия (19.09.2014).Просьба перекачать торрент файл.

    pb.wtf



  • Скачать Обнимая небо через торрент http://i63.fastpic.ru/big/2014/0918/94/9ab384f86b2de04e2fc1aca60a734c94.jpg Скачать фильм Обнимая небо через торрент бесплантно в хорошем качестве Описание: Это история любви длиною в жизнь. Действие фильма начинается в 1985 году в военном гарнизоне, в котором дислоцируется полк ... 9.7 10 36
    Info! Золотая раздача, скачанное не засчитывается.
    Торрент: Зарегистрирован [2014-09-19 05:25] · скачан: 1 135 раз
    Статус: √ проверено
    Размер: 7.03 GB
    Как cкачать? Как скачать Обнимая небо через торрент | qTorrent

    % Раздел Тема Автор DL S | L
    Наши сериалы [ 8.46 GB ] Обнимая небо / Сезон: 1 / Серии: 1-12 из 12 [2014 HDTVRip] bober100 Скачать
    1 | 0
    Наши сериалы [ 39.67 GB ] Обнимая небо / Сезон: 1 / Серии: 1-12 из 12 [2014 HDTV 1080i] bober100 Скачать
    1 | 0

    28-11-2019 20:33  

    Отключить всю рекламу на сайте

      Дорогой пользователь! Огромная просьба, поблагодарите релизера, оцените раздачу и оставьте свои комментарий, если Вы скачали Обнимая небо через торрент бесплатно! Внесите свою лепту в развитие PiratBit!
      Комментировать посты могут только пользователи прошедшие не сложную регистрацию
      Показать сообщения:    

      Обнимая небо через торрент
      Скачать бесплатно Обнимая небо
      Обнимая небо скачать торрент
      Обнимая небо смотреть онлайн
      Cкачать фильм Обнимая небо бесплатно
      Обнимая небо скачать торрент в хорошем качестве
      Обнимая небо смотреть онлайн бесплатно в хорошем качестве


      Вы не можете начинать темы
      Вы не можете отвечать на сообщения
      Вы не можете редактировать свои сообщения
      Вы не можете удалять свои сообщения
      Вы не можете голосовать в опросах
      Вы не можете прикреплять файлы к сообщениям
      Вы можете скачивать файлы