Ссылка на приватное зеркало нашего сайта всего за 1$. Внимание количество ограничено!!!

2 сезон

iTunes

1 сезон

1

iTunes

iTunes

iTunes

1 сезон

RePack

30

ИГРА 18+

pack

ВАЖНО

!!Акция!!

Alien_RageХит недели

RePack

MK11
pack

Забери бонус

RePack

jed

!!Акция!!

Alien_Rage

RePack

fifa19

RePack

Assassins Creed: Odyssey

RePack

NEED FOR SPEED™ PAYBACK

4 сезон

9 сезон

Бесстыжие 9 сезон

Все сериалы

все сериалы на PB.wtf

RePack

FAR CRY 5
  

Азуми / Azumi (Рюхэй Китамура) [2003г., боевик, триллер, фэнтези, драма, приключения, BDRip 1080p] MVO, VO pb.wtf

Азуми через торрент pb.wtf

Размер: 11.15 GB | Добавлен: 6 лет 1 мес. назад | Торрент скачан:42 раза
Скачать  

19-09-2014 06:15 Азуми Скачать торрент  

Азуми / Azumi
Релиз от: msltel

Год выпуска
: 2003
Страна: Япония
Жанр: боевик, триллер, фэнтези, драма, приключения
Продолжительность: 02:13:12
Перевод: Профессиональный многоголосый, любительский одноголосый
Субтитры: Нет

Режиссёр: Рюхэй Китамура

В ролях: Ая Уето, Шун Огури, Хироки Наримия, Кенджи Кохаши, Такатоши Канеко, Юма Ишигаки, Ясуоми Сано, Шиньджи Сузуки, Эйта, Шого Ямагучи, Казуки Китамура, Кеничи Эндо, Казуя Шимицу, Рио, Йошио Харада, Масато Ибу, Минору Мацумото, Джо Одагири, Ая Окамото, Так Сакагучи

Описание: В одном из уединённых монастырей путем жесткого отбора и специальных тренировок создавалась каста профессиональных убийц. Десять выпускников сошлись в смертельной схватке. В живых останутся лучшие. Ей предназначена миссия по предотвращению гражданской войны путем уничтожения правителей трёх провинций. Но время было упущено, и теперь Азуми предстоит сражение с огромной армией последнего правителя…



Качество: BDRip 1080p [Исходник от Augnychku] Сравнение с исходником
Формат: MKV
Видео кодек: H.264
Аудио кодек: AC3
Видео: 1864x998, 10.7 Mbps, 23.976 кадра/сек
Аудио 1: русский, AC3, 448 kbps, 6 ch, 48 kHz [Профессиональный многоголосый, Cinema Prestige]
Аудио 2: русский, AC3, 192 kbps, 2 ch, 48 kHz [Любительский одноголосый]
Аудио 3: японский, AC3, 448 kbps, 6 ch, 48 kHz [Оригинал]
Общее
Уникальный идентификатор : 200223523409529912899395328474367628725 (0x96A1A5DEC62C6DF99EF01F142B7395B5)
Полное имя : D:VideoAzumi.2003.BDRip.1080p.mkv
Формат : Matroska
Версия формата : Version 4 / Version 2
Размер файла : 11,1 Гбайт
Продолжительность : 2 ч. 13 м.
Общий поток : 12,0 Мбит/сек
Дата кодирования : UTC 2014-08-09 05:33:52
Программа кодирования : mkvmerge v6.9.1 ('Blue Panther') 64bit built on Apr 18 2014 18:23:38
Библиотека кодирования : libebml v1.3.0 + libmatroska v1.4.1

Видео
Идентификатор : 1
Формат : AVC
Формат/Информация : Advanced Video Codec
Профиль формата : High@L4.1
Параметр CABAC формата : Да
Параметр ReFrames формата : 4 кадра
Идентификатор кодека : V_MPEG4/ISO/AVC
Продолжительность : 2 ч. 13 м.
Битрейт : 10,7 Мбит/сек
Ширина : 1864 пикселя
Высота : 998 пикселей
Соотношение сторон : 1,85:1
Режим частоты кадров : Постоянный
Частота кадров : 23,976 кадра/сек
Цветовое пространство : YUV
Субдискретизация насыщенности : 4:2:0
Битовая глубина : 8 бит
Тип развёртки : Прогрессивная
Бит/(Пиксели*Кадры) : 0.239
Размер потока : 9,91 Гбайт (89%)
Заголовок : BDRip -- STarankov
Библиотека кодирования : x264 core 142 r2431 ac76440
Настройки программы : cabac=1 / ref=4 / deblock=1:-1:-1 / analyse=0x3:0x113 / me=umh / subme=10 / psy=1 / psy_rd=1.00:0.15 / mixed_ref=1 / me_range=32 / chroma_me=1 / trellis=2 / 8x8dct=1 / cqm=0 / deadzone=21,11 / fast_pskip=0 / chroma_qp_offset=-3 / threads=6 / lookahead_threads=1 / sliced_threads=0 / nr=0 / decimate=1 / interlaced=0 / bluray_compat=0 / constrained_intra=0 / bframes=8 / b_pyramid=2 / b_adapt=2 / b_bias=0 / direct=1 / weightb=1 / open_gop=0 / weightp=2 / keyint=230 / keyint_min=23 / scenecut=40 / intra_refresh=0 / rc_lookahead=40 / rc=crf / mbtree=0 / crf=16.5 / qcomp=0.60 / qpmin=0 / qpmax=69 / qpstep=4 / vbv_maxrate=40000 / vbv_bufsize=50000 / crf_max=0.0 / nal_hrd=none / filler=0 / ip_ratio=1.40 / pb_ratio=1.30 / aq=1:1.00
Язык : Japanese
Default : Да
Forced : Нет

Аудио #1
Идентификатор : 2
Формат : AC-3
Формат/Информация : Audio Coding 3
Расширение режима : CM (complete main)
Параметр Endianness формата : Big
Идентификатор кодека : A_AC3
Продолжительность : 2 ч. 13 м.
Вид битрейта : Постоянный
Битрейт : 448 Кбит/сек
Каналы : 6 каналов
Расположение каналов : Front: L C R, Side: L R, LFE
Частота : 48,0 КГц
Битовая глубина : 16 бит
Метод сжатия : С потерями
Размер потока : 427 Мбайт (4%)
Заголовок : MVO (Cinema Prestige)
Язык : Russian
Default : Да
Forced : Нет

Аудио #2
Идентификатор : 3
Формат : AC-3
Формат/Информация : Audio Coding 3
Расширение режима : CM (complete main)
Параметр Endianness формата : Big
Идентификатор кодека : A_AC3
Продолжительность : 2 ч. 13 м.
Вид битрейта : Постоянный
Битрейт : 192 Кбит/сек
Каналы : 2 канала
Расположение каналов : Front: L R
Частота : 48,0 КГц
Битовая глубина : 16 бит
Метод сжатия : С потерями
Размер потока : 183 Мбайт (2%)
Заголовок : VO (любительский одноголосый)
Язык : Russian
Default : Нет
Forced : Нет

Аудио #3
Идентификатор : 4
Формат : AC-3
Формат/Информация : Audio Coding 3
Расширение режима : CM (complete main)
Параметр Endianness формата : Big
Идентификатор кодека : A_AC3
Продолжительность : 2 ч. 13 м.
Вид битрейта : Постоянный
Битрейт : 448 Кбит/сек
Каналы : 6 каналов
Расположение каналов : Front: L C R, Side: L R, LFE
Частота : 48,0 КГц
Битовая глубина : 16 бит
Метод сжатия : С потерями
Размер потока : 427 Мбайт (4%)
Заголовок : Original
Язык : Japanese
Default : Нет
Forced : Нет

---[Information] [06.08.2014 13:52:00] raw [info]: 1864x998p 1:1 @ 24000/1001 fps (cfr)
---[Information] [06.08.2014 13:52:00] x264 [info]: using SAR=1/1
---[Information] [06.08.2014 13:52:00] x264 [info]: using cpu capabilities: MMX2 SSE2Fast SSSE3 SSE4.2
---[Information] [06.08.2014 13:52:00] x264 [info]: profile High, level 4.1
---[Information] [07.08.2014 5:04:00] x264 [info]: frame I:1575 Avg QP:13.77 size:168208
---[Information] [07.08.2014 5:04:00] x264 [info]: frame P:39037 Avg QP:14.62 size: 95351
---[Information] [07.08.2014 5:04:00] x264 [info]: frame B:151015 Avg QP:16.83 size: 45647
---[Information] [07.08.2014 5:04:00] x264 [info]: consecutive B-frames: 2.2% 2.0% 6.7% 10.9% 13.0% 52.6% 6.6% 1.6% 4.3%
---[Information] [07.08.2014 5:04:00] x264 [info]: mb I I16..4: 6.5% 65.8% 27.6%
---[Information] [07.08.2014 5:04:00] x264 [info]: mb P I16..4: 3.8% 34.5% 11.5% P16..4: 20.9% 19.8% 9.1% 0.0% 0.0% skip: 0.4%
---[Information] [07.08.2014 5:04:00] x264 [info]: mb B I16..4: 1.0% 7.3% 1.5% B16..8: 35.6% 17.2% 4.0% direct:16.2% skip:17.3% L0:41.8% L1:43.4% BI:14.8%
---[Information] [07.08.2014 5:04:00] x264 [info]: 8x8 transform intra:71.3% inter:50.8%
---[Information] [07.08.2014 5:04:00] x264 [info]: coded y,uvDC,uvAC intra: 78.2% 78.6% 54.6% inter: 41.6% 41.3% 4.5%
---[Information] [07.08.2014 5:04:00] x264 [info]: i16 v,h,dc,p: 31% 17% 20% 32%
---[Information] [07.08.2014 5:04:00] x264 [info]: i8 v,h,dc,ddl,ddr,vr,hd,vl,hu: 16% 15% 20% 6% 7% 8% 8% 8% 11%
---[Information] [07.08.2014 5:04:00] x264 [info]: i4 v,h,dc,ddl,ddr,vr,hd,vl,hu: 20% 16% 12% 7% 10% 9% 9% 7% 9%
---[Information] [07.08.2014 5:04:00] x264 [info]: i8c dc,h,v,p: 35% 31% 23% 11%
---[Information] [07.08.2014 5:04:00] x264 [info]: Weighted P-Frames: Y:3.5% UV:1.9%
---[Information] [07.08.2014 5:04:00] x264 [info]: ref P L0: 51.4% 10.4% 24.2% 12.9% 1.1% 0.0%
---[Information] [07.08.2014 5:04:00] x264 [info]: ref B L0: 85.4% 11.9% 2.8%
---[Information] [07.08.2014 5:04:00] x264 [info]: ref B L1: 90.7% 9.3%
---[Information] [07.08.2014 5:04:00] x264 [info]: kb/s:10890.83
---[Information] [07.08.2014 5:04:00] encoded 191627 frames, 3.50 fps, 10890.83 kb/s
--[Information] [07.08.2014 5:04:00] Final statistics
---[Information] [07.08.2014 5:04:00] Constant Quality Mode: Quality 16 computed...
---[Information] [07.08.2014 5:04:00] Video Bitrate Obtained (approximate): 10892 kbit/s
--[Information] [07.08.2014 5:04:00] MediaInfo
---[Information] [07.08.2014 5:04:00] File: D:RipAzumi.2003.BDRipAzumi.2003.BDRip.1080p.mkv
pb.wtf



Скачать Азуми через торрент http://i65.fastpic.ru/big/2014/0919/67/092b20367c8f298ec60d70346a343167.jpg Скачать фильм Азуми через торрент бесплантно в хорошем качестве Описание: В одном из уединённых монастырей путем жесткого отбора и специальных тренировок создавалась каста профессиональных убийц. Десять ... 8.2 10 5
Info! Золотая раздача, скачанное не засчитывается.
Торрент: Зарегистрирован [2014-09-19 06:15] · скачан: 42 раз
Статус: √ проверено
Размер: 11.15 GB
Как cкачать? Как скачать Азуми через торрент | qTorrent

% Раздел Тема Автор DL S | L
Фильмы [HD 720p, 1080p] (Хороший звук DUB, MVO) [ 6.23 GB ] Азуми / Azumi [2003 BDRip 720p] MVO VO msltel Скачать
1 | 0
Фильмы 2001-2005 [ 2.8 GB ] Азуми / Azumi [2003 BDRip] MVO VO msltel Скачать
1 | 0

28-11-2019 20:33  

Отключить всю рекламу на сайте

    Дорогой пользователь! Огромная просьба, поблагодарите релизера, оцените раздачу и оставьте свои комментарий, если Вы скачали Азуми через торрент бесплатно! Внесите свою лепту в развитие PiratBit!
    Комментировать посты могут только пользователи прошедшие не сложную регистрацию
    Показать сообщения:    

    Азуми через торрент
    Скачать бесплатно Азуми
    Азуми скачать торрент
    Азуми смотреть онлайн
    Cкачать фильм Азуми бесплатно
    Азуми скачать торрент в хорошем качестве
    Азуми смотреть онлайн бесплатно в хорошем качестве


    Вы не можете начинать темы
    Вы не можете отвечать на сообщения
    Вы не можете редактировать свои сообщения
    Вы не можете удалять свои сообщения
    Вы не можете голосовать в опросах
    Вы не можете прикреплять файлы к сообщениям
    Вы можете скачивать файлы