2 сезон

iTunes

MVO

1

2 сезон

iTunes

iTunes

1 сезон

RePack

30

Новинка

ВАЖНО

ИГРА 18+

pack

RePack

MK11
pack

Легкие деньги

RePack

jed

RePack

fifa19

RePack

RDR2

RePack

NEED FOR SPEED™ PAYBACK

4 сезон

9 сезон

Бесстыжие 9 сезон

Все сериалы

все сериалы на PB.wtf

RePack

FAR CRY 5

Anonymous, добрый вечер, мы не успеваем собрать деньги на оплату серверов за декабрь и январь, помогите нам пожалуйста в это трудное время. В качестве благодарности мы отключим Вам всю рекламу на сайте (укажите свой ник в строку Ваше имя)!

×
  
Magnet ссылка

Молода и прекрасна / Jeune & jolie (Франсуа Озон) [2013 г., Драма, мелодрама, HDRip-AVC, Дубляж, Лицензия] pb.wtf

Молода и прекрасна через торрент pb.wtf

Размер: 1.44 GB | Добавлен: 6 лет 6 мес. назад | Торрент скачан:297 раз
Скачать  

01-02-2014 13:01 Молода и прекрасна Скачать торрент  


Молода и прекрасна / Jeune & jolie


Год выпуска:2013
Страна:Франция
Жанр:драма
Продолжительность: 01:33:20
Перевод:Профессиональный [Дубляж - Лицензия]
Субтитры: Нет
Режиссер:Франсуа Озон / François Ozon
В ролях:Марина Вакт (Isabelle), Жеральдин Пайя (Sylvie), Фредерик Пьеро (Patrick), Шарлотта Рэмплинг (Alice), Фантен Рава (Victor), Йохан Лейзен (Georges), Натали Ришар (Véro), Джедже Апали (Peter), Люка Призор (Felix), Лорен Дельбек (Alex), Жанна Рафф (Claire), Кароль Франк (La policière)
  • Описание:
    Семнадцатилетняя Изабель погружается в бездонный мир любви, в поиски себя. Не столько из-за денег, сколько ради удовольствия, она встречается с немолодыми клиентами в гостиничных номерах. Близкие Изабель не подозревают, чем одержима умная и тонкая девушка. Но однажды умирает один из ее постоянных клиентов...

    Качество: HDRip-AVC/Автор рипа: Raven
    Формат: MKV
    Видео кодек: AVC
    Аудио кодек:AC3
    Видео: AVC, 960x520 (16:9), 1825 kbps, 23,976 fps, 0,152 bpp
    Аудио: русский / AC3 / 5.1 / 48 kHz / 384 kbps / 16 bit ||

Код:

General
Unique ID                                : 193704481577564020429898926858800755573 (0x91BA204AEC1C12299BCA303BE4F47375)
Complete name                            : D:ТорентыРипыMoloda.i.prekrasna.2013..__Piratbit.net_by Raven.mkv
Format                                   : Matroska
Format version                           : Version 4 / Version 2
File size                                : 1.44 GiB
Duration                                 : 1h 33mn
Overall bit rate                         : 2 207 Kbps
Movie name                               : Piratbit.net_by Raven
Encoded date                             : UTC 2014-02-01 12:46:46
Writing application                      : mkvmerge v6.4.1 ('Omega Point') built on Sep 16 2013 22:05:10
Writing library                          : libebml v1.3.0 + libmatroska v1.4.1

Video
ID                                       : 1
Format                                   : AVC
Format/Info                              : Advanced Video Codec
Format profile                           : High@L5.2
Format settings, CABAC                   : Yes
Format settings, ReFrames                : 10 frames
Codec ID                                 : V_MPEG4/ISO/AVC
Duration                                 : 1h 33mn
Bit rate                                 : 1 825 Kbps
Width                                    : 960 pixels
Height                                   : 520 pixels
Display aspect ratio                     : 16:9
Frame rate                               : 23.976 fps
Color space                              : YUV
Chroma subsampling                       : 4:2:0
Bit depth                                : 8 bits
Scan type                                : Progressive
Bits/(Pixel*Frame)                       : 0.152
Stream size                              : 1.16 GiB (81%)
Title                                    : _Piratbit.net_by Raven
Writing library                          : x264 core 125 r2208 d9d2288
Encoding settings                        : cabac=1 / ref=10 / deblock=1:-1:-2 / analyse=0x3:0x113 / me=umh / subme=9 / psy=1 / psy_rd=1.00:0.10 / mixed_ref=1 / me_range=32 / chroma_me=1 / trellis=1 / 8x8dct=1 / cqm=0 / deadzone=21,11 / fast_pskip=0 / chroma_qp_offset=-3 / threads=6 / lookahead_threads=1 / sliced_threads=0 / nr=0 / decimate=0 / interlaced=0 / bluray_compat=0 / constrained_intra=0 / bframes=3 / b_pyramid=2 / b_adapt=1 / b_bias=0 / direct=3 / weightb=1 / open_gop=0 / weightp=2 / keyint=250 / keyint_min=23 / scenecut=40 / intra_refresh=0 / rc_lookahead=60 / rc=2pass / mbtree=1 / bitrate=1825 / ratetol=1.0 / qcomp=0.07 / qpmin=0 / qpmax=69 / qpstep=4 / cplxblur=20.0 / qblur=0.5 / vbv_maxrate=50000 / vbv_bufsize=62500 / nal_hrd=none / ip_ratio=1.35 / aq=1:1.00
Language                                 : English
Default                                  : Yes
Forced                                   : No

Audio
ID                                       : 2
Format                                   : AC-3
Format/Info                              : Audio Coding 3
Mode extension                           : CM (complete main)
Codec ID                                 : A_AC3
Duration                                 : 1h 33mn
Bit rate mode                            : Constant
Bit rate                                 : 384 Kbps
Channel(s)                               : 6 channels
Channel positions                        : Front: L C R, Side: L R, LFE
Sampling rate                            : 48.0 KHz
Bit depth                                : 16 bits
Compression mode                         : Lossy
Stream size                              : 256 MiB (17%)
Title                                    : AC3.384Kbps (6ch) Russian (Дубляж)
Language                                 : Russian
Default                                  : Yes
Forced                                   : No


Скриншоты:


Трейлеры к фильмам [2014]

© Оформление by Raven
pb.wtf



Скачать Молода и прекрасна через торрент https://pic.kartinco.top/images/6/ordi9.jpg Скачать фильм Молода и прекрасна через торрент бесплантно в хорошем качестве Описание:Семнадцатилетняя Изабель погружается в бездонный мир любви, в поиски себя. Не столько из-за денег, сколько ради удовольствия, она ... 9.3 10 24
Торрент: Зарегистрирован [2014-07-20 01:12] · скачан: 297 раз
Статус: √ проверено
Размер: 1.44 GB
Как cкачать? Как скачать Молода и прекрасна через торрент | UTorrent



Последний раз редактировалось: Ворон (2014-07-20 01:13), всего редактировалось 2 раз(а)

28-11-2019 20:33  

Отключить всю рекламу на сайте

05-02-2014 10:22 Молода и прекрасна Скачать торрент  

посмотрела. необычный жанр. могу сказать не плохо,на 7-ку .pb.wtf



    Дорогой пользователь! Огромная просьба, поблагодарите релизера, оцените раздачу и оставьте свои комментарий, если Вы скачали Молода и прекрасна через торрент бесплатно! Внесите свою лепту в развитие PiratBit!
    Комментировать посты могут только пользователи прошедшие не сложную регистрацию
    Показать сообщения:    

    Молода и прекрасна через торрент
    Скачать бесплатно Молода и прекрасна
    Молода и прекрасна скачать торрент
    Молода и прекрасна смотреть онлайн
    Cкачать фильм Молода и прекрасна бесплатно
    Молода и прекрасна скачать торрент в хорошем качестве
    Молода и прекрасна смотреть онлайн бесплатно в хорошем качестве


    Вы не можете начинать темы
    Вы не можете отвечать на сообщения
    Вы не можете редактировать свои сообщения
    Вы не можете удалять свои сообщения
    Вы не можете голосовать в опросах
    Вы не можете прикреплять файлы к сообщениям
    Вы можете скачивать файлы